Скачать через торрент Цена молчания Конец молчания Фильм бесплатно в хорошем качестве torrent

Скачивайте на UnionPeer.org фильмы через торрент без регистрации. Новинки кино в хорошем качестве через торрент. На UnionPeer.org можно скачать через торрент фильмы 2014 и 2015 годов. Самые новые фильмы.

Скачать торрент Цена молчания Конец молчания бесплатно через .torrent фильм мультфильм сериал

Статистика раздачи
Размер:  1.6 GB   |    Зарегистрирован:  11 лет   |    .torrent скачан:  31 раз   |   
Раздают:  1  
   
 
Автор Сообщение

Galfimbul

avatar Galfimbul


Цена молчания / Конец молчания
La fin du silence / The End of Silence
Страна: Франция, Австрия
Жанр: драма, триллер
Год выпуска: 2011
Продолжительность: 01:16:08

Перевод: Субтитры (перевод Е. Маньен, Éclair Group)
Cубтитры: русские
Оригинальная аудиодорожка: французский

Режиссер: Ролан Эдзар / Roland Edzard

В ролях: Франк Фализ / Franck Falise (Jean), Тьерри Фремон / Thierry Frémont (Nils), Майя Моргенштерн / Maia Morgenstern (Anne), Карло Брандт / Carlo Brandt (Théo), Марианн Басле / Marianne Basler (Ida), Алексис Михалик / Alexis Michalik (Luc)

Описание: Атмосфера тревоги и отстраненности складывается с первых кадров фильма, показывающих чащу ночного леса. Сложные отношения царят в семействе Кляйн, живущей в отдаленной горной местности. Младший сын Жан считается в семье "паршивой овцой". Он, в свою очередь, жесток и озлоблен. Что довело этого юношу до состояния почти животной агрессии? Что случится, когда в его руках окажется винтовка? После исчезновения Жана в горах семья со страхом ждет его возвращения. Уже третий день идут проливные дожди. Способен ли Жан с оружием в руках бросить вызов семье?

Доп. информация: Собственная запись со спутника (канал TV5MONDE, пакет НТВ+).

Награды: приз Paysages de Cinéastes - Festival du Film de Châtenay-Malabry 2011 лучшему актеру (Franck Falise) + 4 номинации (Гран-при, лучший режиссер-дебютант, молодежная премия, приз Зрительских симпатий); номинация на приз "Золотая камера" Festival de Cannes 2011 режиссеру; 3 номинации Quinzaine des Réalisateurs 2011 (приз Европейского кино, Prix SACD, Art Cinema Award).

Информация: http://www.imdb.com/title/tt1526332/

Сэмпл: http://multi-up.com/778642

Качество видео: DVB
Формат видео: MPG

Видео: MPEG Video 2, 720x576@1024x576 (16:9), 25 fps, ~2751 kbps avg
Аудио: Французский (48 kHz, MPEG Audio 2, 2 ch, ~192.00 kbps avg)
Формат субтитров: hardsub (неотключаемые)
Полное имя : H:\My Torrents\[apreder]La_fin_du_silence(2011)DVB.mpgФормат : MPEG-PSРазмер файла : 1,60 ГбайтПродолжительность : 1 ч. 16 м.Режим общего битрейта : ПеременныйОбщий поток : 3003 Кбит/сек

ВидеоИдентификатор : 224 (0xE0)Формат : MPEG VideoВерсия формата : Version 2Профиль формата : Main@MainПараметр BVOP формата : ДаПараметр матрицы формата : ВыборочнаяПараметр GOP формата : M=3, N=24Продолжительность : 1 ч. 16 м.Вид битрейта : ПеременныйБитрейт : 2751 Кбит/секШирина : 720 пикселейВысота : 576 пикселейСоотношение сторон : 16:9Частота кадров : 25,000 кадров/секСтандарт вещания : PALЦветовое пространство : YUVСубдискретизация насыщенности : 4:2:0Битовая глубина : 8 битТип развёртки : ПрогрессивнаяПорядок развёртки : Верхнее поле первоеМетод сжатия : С потерямиБит/(Пиксели*Кадры) : 0.265Размер потока : 1,46 Гбайт (92%)

АудиоИдентификатор : 192 (0xC0)Формат : MPEG AudioВерсия формата : Version 1Профиль формата : Layer 2Продолжительность : 1 ч. 16 м.Вид битрейта : ПостоянныйБитрейт : 192 Кбит/секКаналы : 2 каналаЧастота : 48,0 КГцМетод сжатия : С потерямиРазмер потока : 105 Мбайт (6%)



Внимание! AdBlock блокирует показ скриншотов, все вопросы к разработчикам )))
Трекер:  [ 22-Окт-2012 17:49 ]

  

Скачать .torrent

Размер .torrent файла 16 KB


Размер: 1.6 GB
Хэш (hash) релиза: 3d86dc13f852cad147ee07ca984e2e8094a70335
Подписка на обновления:

Торренты, похожие на Цена молчания Конец молчания скачать торрент

Форум Название Автор Размер S L Добавлен
Зарубежные фильмы до 2016 ·· Цена молчания / Конец молчания / La fin du silence / The End of Silence (Ролан Эдзар / Roland Edzard) [2011 г., Франция, Австрия, драма, триллер, DVDRip] VO (GalVid) Galfimbul 768139264733 MB 0 0 1356023160

20:06

20-Дек-12

Еще никто не оставлял запись к записи скачать торрент Цена молчания Конец молчания . Будь первым!

!Обратная связь