..."/> ...">

Скачать порно через торрент [DirtyMasseur.comBrazzers.com] Dana Vespoli UnionPeer.org бесплатно онлайн HD качество

Скачать новое порно 2015, 2014 новинки через торрент UnionPeer.org

Порно торрент бесплатно ЮнионПир.орг

Статистика раздачи
Размер:  2.52 GB   |    Зарегистрирован:  11 лет   |    .torrent скачан:  416 раз   |   
Раздают:  1  
 

Скачать [DirtyMasseur.com/Brazzers.com] Dana Vespoli (Giving Back) [09.11.2012г., Anal, Oil, Massage, Raven, MILF, 1080p] через torrent

 
 
Автор Сообщение

Galfimbul

avatar Galfimbul


[DirtyMasseur.com/Brazzers.com]
Dana Vespoli & Wrexxx Kidneys
Giving Back
[09.11.2012г.]

Имя актрисы: Dana Vespoli
Название ролика: Giving Back
Подсайт и сайт: DirtyMasseur.com/Brazzers.com

Год производства: 2012 г.
Жанр: Anal, Oil, Massage, Raven, MILF
Продолжительность: 00:28:29

Тип HD видео: 1080p
Формат видео: MP4
Видео кодек: H.264/AVC
Аудио кодек: AAC
Видео: MPEG4 Video (H264) 1920x1080 29.97fps 12000kbps
Аудио: AAC 48000Hz stereo 128kbps 2 channels

Описание:
Dana is both intrigued and skeptical of her boss' bizarre plan to "give back to the employees."
Wrexxx wants to come to his prized employees' homes on the weekend to give them massages.
Dana doesn't know what to expect, but Wrexxx knows exactly what he's after.
General
Complete name : dm_dana_vespoli_1080p_12000.mp4
Format : MPEG-4
Format profile : Base Media
Codec ID : isom
File size : 2.52 GiB
Duration : 28mn 29s
Overall bit rate : 12.7 Mbps
Encoded date : UTC 2012-10-29 19:49:46
Tagged date : UTC 2012-10-29 19:49:46

Video
ID : 1
Format : AVC
Format/Info : Advanced Video Codec
Format profile : <a href="mailto:[email protected]" class="postLink">[email protected]</a>
Format settings, CABAC : Yes
Format settings, ReFrames : 5 frames
Format settings, GOP : M=3, N=60
Codec ID : avc1
Codec ID/Info : Advanced Video Coding
Duration : 28mn 29s
Bit rate : 12.0 Mbps
Width : 1 920 pixels
Height : 1 080 pixels
Display aspect ratio : 16:9
Frame rate mode : Variable
Frame rate : 29.970 fps
Minimum frame rate : 29.940 fps
Maximum frame rate : 29.970 fps
Color space : YUV
Chroma subsampling : 4:2:0
Bit depth : 8 bits
Scan type : Progressive
Bits/(Pixel*Frame) : 0.193
Stream size : 2.40 GiB (95%)
Writing library : x264 core 125 r2208 d9d2288
Encoding settings : cabac=1 / ref=5 / deblock=1:0:0 / analyse=0x3:0x113 / me=umh / subme=8 / psy=1 / psy_rd=1.00:0.00 / mixed_ref=1 / me_range=16 / chroma_me=1 / trellis=1 / 8x8dct=1 / cqm=0 / deadzone=21,11 / fast_pskip=1 / chroma_qp_offset=-2 / threads=36 / lookahead_threads=6 / sliced_threads=0 / nr=0 / decimate=1 / interlaced=0 / bluray_compat=0 / constrained_intra=0 / bframes=3 / b_pyramid=2 / b_adapt=2 / b_bias=0 / direct=3 / weightb=1 / open_gop=0 / weightp=2 / keyint=60 / keyint_min=6 / scenecut=40 / intra_refresh=0 / rc_lookahead=50 / rc=abr / mbtree=1 / bitrate=12000 / ratetol=1.0 / qcomp=0.60 / qpmin=0 / qpmax=69 / qpstep=4 / ip_ratio=1.40 / aq=1:1.00
Tagged date : UTC 2012-10-29 23:22:17

Audio
ID : 2
Format : AAC
Format/Info : Advanced Audio Codec
Format profile : LC
Codec ID : 40
Duration : 28mn 29s
Bit rate mode : Constant
Bit rate : 128 Kbps
Channel(s) : 2 channels
Channel positions : Front: L R
Sampling rate : 48.0 KHz
Compression mode : Lossy
Stream size : 26.1 MiB (1%)
Tagged date : UTC 2012-10-29 23:22:17


Внимание! AdBlock блокирует показ скриншотов, все вопросы к разработчикам )))
Трекер:  [ 09-Ноя-2012 14:52 ]

  

Скачать .torrent

Размер .torrent файла 13 KB


Размер: 2.52 GB
Хэш (hash) релиза: a6902fd8ef4eaa0e7f22d1b4723d164b6245dfde

Торренты, похожие на [DirtyMasseur.comBrazzers.com] Dana Vespoli скачать торрент

Форум Название Автор Размер S L Добавлен
Сайтрипы 1991-2010 / SiteRip's 1991-2010 ·· [DirtyMasseur.com / Brazzers.com] Dana Vespoli (Giving Back / 09.11.12) [2012г., Anal, Oil, Massage, Raven, MILF] Galfimbul 256322871244 MB 0 0 1352461920

14:52

9-Ноя-12

Сайтрипы 1991-2010 / SiteRip's 1991-2010 ·· [DirtyMasseur.com / Brazzers.com] Dana Vespoli (Giving Back / 09.11.12) [2012г., Anal, Oil, Massage, Raven, MILF] Galfimbul 479785216458 MB 0 0 1352461860

14:51

9-Ноя-12

Сайтрипы 1991-2010 / SiteRip's 1991-2010 ·· [DirtyMasseur.com / Brazzers.com] Dana Vespoli (Giving Back / 09.11.12) [2012г., Anal, Oil, Massage, Raven, MILF, 720p] Galfimbul 18162927671.69 GB 0 0 1352461860

14:51

9-Ноя-12

Еще никто не оставлял запись к записи скачать торрент [DirtyMasseur.comBrazzers.com] Dana Vespoli . Будь первым!

!Обратная связь