Скачать порно через торрент [EveAngelOfficial.comDDFProd.com] Suzie Carina & Eve Angel UnionPeer.org бесплатно онлайн HD качество

Скачать новое порно 2015, 2014 новинки через торрент UnionPeer.org

Порно торрент бесплатно ЮнионПир.орг

Статистика раздачи
Размер:  928 MB   |    Зарегистрирован:  11 лет   |    .torrent скачан:  319 раз   |   
Раздают:  1  
 

Скачать [EveAngelOfficial.com/DDFProd.com] Suzie Carina & Eve Angel (Peek-A-Boo Pantyhose!) [14.11.2012г., Porn star, Lesbian, Foot fetish, Pantyhose, Close-up, 720p] через torrent

 
 
Автор Сообщение

Galfimbul

avatar Galfimbul


[EveAngelOfficial.com/DDFProd.com]
Suzie Carina & Eve Angel
Peek-A-Boo Pantyhose!
[14.11.2012г.]

Имя актрисы: Suzie Carina & Eve Angel
Название ролика: Peek-A-Boo Pantyhose!
Подсайт и сайт: EveAngelOfficial.com/DDFProd.com

Год производства: 2012 г.
Жанр: Porn star, Lesbian, Foot fetish, Pantyhose, Close-up
Продолжительность: 00:31:22

Тип HD видео: 720p
Формат видео: MP4
Видео кодек: H.264/AVC
Аудио кодек: AAC
Видео: MPEG4 Video (H264) 1280x720 29.97fps 4016kbps
Аудио: AAC 44100Hz stereo 128kbps

Описание:
My hot Czech girlfriend, Suzie Carina, is known for being a foot fetish addict, so when I felt like getting some nasty toe sucking action on,
of course she was the first one I called. In preparation for her visit, I bought colorful pantyhose for us to try on, and just wait till you see what we do with them!
I can’t help but get turned on seeing Suzie in her lingerie, and I reach for her feet right away, slipping off her heels so I can take each of her toes in my mouth one by one.
You can tell that Suzie is determined to play foot fetish games the way she returns the favor, sucking and licking my peds, from my digits, to my soles, to my heels,
all the while running her hands up and down my calves. When it’s time to play with the stockings,
I dress her in a pink pair and her bare ass as seen through them just makes them look that much more luscious.
She slips a purple pair on me and licks my big booty through them. That’s not enough for a foot loving pornstar like her though!
She gets out a pair of scissors and we cut holes at our feet and pussies so we can have direct contact with them.
You don’t want to miss the close-ups of us licking each other’s trimmed pussies through the new peek-a-boo holes, or the sounds of our moans as we reach raging orgasms!
General
Complete name : suzie-carina-and-eve-angel-9334eav1-high.mp4
Format : MPEG-4
Format profile : Base Media / Version 2
Codec ID : mp42
File size : 928 MiB
Duration : 31mn 22s
Overall bit rate : 4 134 Kbps
Encoded date : UTC 2012-11-12 15:27:22
Tagged date : UTC 2012-11-12 17:30:48

Video
ID : 2
Format : AVC
Format/Info : Advanced Video Codec
Format profile : <a href="mailto:[email protected]" class="postLink">[email protected]</a>
Format settings, CABAC : No
Format settings, ReFrames : 2 frames
Format settings, GOP : M=2, N=24
Codec ID : avc1
Codec ID/Info : Advanced Video Coding
Duration : 31mn 22s
Bit rate : 4 016 Kbps
Width : 1 280 pixels
Height : 720 pixels
Display aspect ratio : 16:9
Frame rate mode : Constant
Frame rate : 29.970 fps
Color space : YUV
Chroma subsampling : 4:2:0
Bit depth : 8 bits
Scan type : Progressive
Bits/(Pixel*Frame) : 0.145
Stream size : 901 MiB (97%)
Language : English
Encoded date : UTC 2012-11-12 15:27:24
Tagged date : UTC 2012-11-12 17:30:48
Color primaries : BT.709
Transfer characteristics : BT.709
Matrix coefficients : BT.709

Audio
ID : 1
Format : AAC
Format/Info : Advanced Audio Codec
Format profile : LC
Codec ID : 40
Duration : 31mn 22s
Bit rate mode : Constant
Bit rate : 113 Kbps
Nominal bit rate : 128 Kbps
Channel(s) : 2 channels
Channel positions : Front: L R
Sampling rate : 44.1 KHz
Compression mode : Lossy
Delay relative to video : 33ms
Stream size : 25.4 MiB (3%)
Language : English
Encoded date : UTC 2012-11-12 15:27:23
Tagged date : UTC 2012-11-12 17:30:48


Внимание! AdBlock блокирует показ скриншотов, все вопросы к разработчикам )))
Трекер:  [ 17-Ноя-2012 12:21 ]

  

Скачать .torrent

Размер .torrent файла 18 KB


Размер: 928 MB
Хэш (hash) релиза: 3f2622852f0dd0ac6ef4e27c0a238aad37c80927

Торренты, похожие на [EveAngelOfficial.comDDFProd.com] Suzie Carina & Eve Angel скачать торрент

Форум Название Автор Размер S L Добавлен
Сайтрипы 1991-2010 / SiteRip's 1991-2010 ·· [EveAngelOfficial.com / DDFProd.com] Eve Angel & Suzie Carina (Pantyhose sex / 9334eav1 / 03.12.09) [2009 г., Lesbo, Foot fetish, 720p] Galfimbul 977208791932 MB 0 0 1374938919

18:28

27-Июл-13

Еще никто не оставлял запись к записи скачать торрент [EveAngelOfficial.comDDFProd.com] Suzie Carina & Eve Angel . Будь первым!

!Обратная связь