Скачать через торрент Цена молчания Конец молчания Фильм бесплатно в хорошем качестве torrent

Скачивайте на UnionPeer.org фильмы через торрент без регистрации. Новинки кино в хорошем качестве через торрент. На UnionPeer.org можно скачать через торрент фильмы 2014 и 2015 годов. Самые новые фильмы.

Скачать торрент Цена молчания Конец молчания бесплатно через .torrent фильм мультфильм сериал

Статистика раздачи
Размер:  733 MB   |    Зарегистрирован:  11 лет   |    .torrent скачан:  25 раз   |   
Раздают:  1  
 

Скачать Цена молчания / Конец молчания / La fin du silence / The End of Silence (Ролан Эдзар / Roland Edzard) [2011 г., Франция, Австрия, драма, триллер, DVDRip] VO (GalVid) через torrent

 
 
Автор Сообщение

Galfimbul

avatar Galfimbul


Цена молчания / Конец молчания / La fin du silence / The End of Silence

Страны: Франция, Австрия
Жанр: драма, триллер
Год выпуска: 2011
Продолжительность: 01:16:29

Перевод: Одноголосый закадровый (GalVid)
Субтитры: нет

Режиссер: Ролан Эдзар / Roland Edzard
В ролях: Франк Фализ / Franck Falise (Jean), Тьерри Фремон / Thierry Frémont (Nils), Майя Моргенштерн / Maia Morgenstern (Anne), Карло Брандт / Carlo Brandt (Théo), Марианн Басле / Marianne Basler (Ida), Алексис Михалик / Alexis Michalik (Luc)

Описание: Атмосфера тревоги и отстраненности складывается с первых кадров фильма, показывающих чащу ночного леса. Сложные отношения царят в семействе Кляйн, живущей в отдаленной горной местности. Младший сын Жан считается в семье "паршивой овцой". Он, в свою очередь, жесток и озлоблен. Что довело этого юношу до состояния почти животной агрессии? Что случится, когда в его руках окажется винтовка? После исчезновения Жана в горах семья со страхом ждет его возвращения. Уже третий день идут проливные дожди. Способен ли Жан с оружием в руках бросить вызов семье?

IMDb 5,4/10 (59 votes)
Кинопоиск 5,286/10 (7 votes)

Релиз:
Сэмпл

Качество видео: DVDRip
Формат: AVI

Video: 624x336 (1.86:1), 25 fps, DivX Codec 5.2.1 build 1328 ~1137 kbps avg, 0.22 bit/pixel
Audio: 48 kHz, AC3 Dolby Digital, 2/0 (L,R) ch, ~192 kbps
Общее
Полное имя : D:\Torrent-D\La.fin.du.silence.(DVDRip).GalVid.avi
Формат : AVI
Формат/Информация : Audio Video Interleave
Размер файла : 733 Мбайт
Продолжительность : 1 ч. 16 м.
Общий поток : 1339 Кбит/сек
Название фильма : La.fin.du.silence.(DVDRip).GalVid
Режиссёр : Release by GalVid
Программа кодирования : VirtualDubMod 1.5.10.3 (build 2550/release)

Видео
Идентификатор : 0
Формат : MPEG-4 Visual
Параметр BVOP формата : Нет
Параметр QPel формата : Нет
Параметр GMC формата : Без точки перехода
Параметр матрицы формата : Default (H.263)
Идентификатор кодека : DX50
Идентификатор кодека/Подсказка : DivX 5
Продолжительность : 1 ч. 16 м.
Битрейт : 1137 Кбит/сек
Ширина : 624 пикс.
Высота : 336 пикс.
Соотношение сторон : 1,857
Частота кадров : 25,000 кадр/сек
Цветовое пространство : YUV
Подвыборка цветности : 4:2:0
Битовая глубина : 8 бит
Тип развёртки : Прогрессивная
Метод сжатия : С потерями
Бит/(Пиксели*Кадры) : 0.217
Размер потока : 622 Мбайт (85%)
Библиотека кодирования : DivX 5.2.1 (WaffleDay) (UTC 2004-09-08)

Аудио
Идентификатор : 1
Формат : AC-3
Формат/Информация : Audio Coding 3
Расширение режима : CM (complete main)
Идентификатор кодека : 2000
Продолжительность : 1 ч. 16 м.
Вид битрейта : Постоянный
Битрейт : 192 Кбит/сек
Канал(ы) : 2 канала(ов)
Расположение каналов : Front: L R
Частота : 48,0 КГц
Битовая глубина : 16 бит
Метод сжатия : С потерями
Размер потока : 105 Мбайт (14%)
Выравнивание : Разделение по промежуткам
Продолжительность промежутка : 40 мс. (1,00 видеокадр)
Время предзагрузки промежутка : 500 ms


Внимание! AdBlock блокирует показ скриншотов, все вопросы к разработчикам )))
Трекер:  [ 20-Дек-2012 20:06 ]

  

Скачать .torrent

Размер .torrent файла 14 KB


Размер: 733 MB
Хэш (hash) релиза: d8b5db9ab553475aa2750ba964909671fc625dd3
Подписка на обновления:

Торренты, похожие на Цена молчания Конец молчания скачать торрент

Форум Название Автор Размер S L Добавлен
Зарубежные фильмы до 2016 ·· Цена молчания / Конец молчания / La fin du silence / The End of Silence (Ролан Эдзар / Roland Edzard) [2011, Франция, Австрия, драма, триллер, DVB] Original (Fre) + Sub (ru hard) Galfimbul 17147558271.6 GB 0 0 1350917340

17:49

22-Окт-12

Еще никто не оставлял запись к записи скачать торрент Цена молчания Конец молчания . Будь первым!

!Обратная связь