Скачать порно через торрент Best Of Hand-in-Hand 1: Jack and Roger, Superstars Звезды первой величины: Джек и Роджер UnionPeer.org бесплатно онлайн HD качество

Скачать новое порно 2015, 2014 новинки через торрент UnionPeer.org

Порно торрент бесплатно ЮнионПир.орг

Статистика раздачи
Размер:  896 MB   |    Зарегистрирован:  11 лет   |    .torrent скачан:  102 раза   |   
Раздают:  1  
   
 
Автор Сообщение

Galfimbul

avatar Galfimbul


Best Of Hand-in-Hand 1: Jack and Roger, Superstars
Звезды первой величины: Джек и Роджер


Год производства: 1980 г.
Страна: US
Жанр: Compilation, Muscle Men, Oral, Anal, Threesomes, Outdoor Sex, Vintage
Продолжительность: 01:01:07

Режиссер: none available
Студия: Hand-in-Hand Films, Bijou Classics

В ролях: Jack Wrangler, Roger

Описание: This is how porn should be: muscular, handsome, versatile studs that perform with unbridled lust and athletic grace. Jack Wrangler and Roger are two such superstars who more than outclass the competition with the freewheeling, macho sex excerpted in this six-vignette compilation.

Доп. информация: http://www.gayhotmovies.com/video/107910/Jack-And-Roger/

Качество видео: DVDRip
Формат видео: WMV
Видео кодек: Windows Media
Аудио кодек: WMA
Видео: VC-1, WMV3, 640x480 (4/3), 29.970 fps, 1 975 Kbps (0.215 bit/pixel)
Аудио: WMA2 L2, 48.0 KHz, 2 ch, 64.0 Kbps, CBR (en-us)
Полное имя : H:\XXX\[apreder]XXX_Jack_And_Roger(1980)DVDRip.wmvФормат : Windows MediaРазмер файла : 896 МбайтПродолжительность : 1 ч. 1 м.Режим общего битрейта : ПостоянныйОбщий поток : 2049 Кбит/секМаксимальный общий битрейт : 2059 Кбит/секДата кодирования : UTC 2007-10-03 08:52:52.267

ВидеоИдентификатор : 2Формат : VC-1Профиль формата : MP@MLИдентификатор кодека : WMV3Идентификатор кодека/Информация : Windows Media Video 9Идентификатор кодека/Подсказка : WMV3Описание кодека : Windows Media Video 9Продолжительность : 1 ч. 1 м.Вид битрейта : ПостоянныйБитрейт : 1975 Кбит/секШирина : 640 пикселейВысота : 480 пикселейСоотношение сторон : 4:3Частота кадров : 29,970 кадров/секБитовая глубина : 8 битТип развёртки : ПрогрессивнаяМетод сжатия : С потерямиБит/(Пиксели*Кадры) : 0.215Размер потока : 863 Мбайт (96%)Язык : English (US)

АудиоИдентификатор : 1Формат : WMAВерсия формата : Version 2Идентификатор кодека : 161Идентификатор кодека/Информация : Windows Media AudioОписание кодека : Windows Media Audio 9 - 64 kbps, 48 kHz, stereo (A/V) 1-pass CBRПродолжительность : 1 ч. 1 м.Вид битрейта : ПостоянныйБитрейт : 64,0 Кбит/секКаналы : 2 каналаЧастота : 48,0 КГцБитовая глубина : 16 битРазмер потока : 28,0 Мбайт (3%)Язык : English (US)


Внимание! AdBlock блокирует показ скриншотов, все вопросы к разработчикам )))
Трекер:  [ 27-Фев-2013 14:39 ]

  

Скачать .torrent

Размер .torrent файла 18 KB


Размер: 896 MB
Хэш (hash) релиза: b8c2fed257960463bc686998d5ef396cfebb2a93

bot

Топик был перенесен в форум Нетрадиционное порно

Перенес Galfimbul

Хотите добавить комментарий к записи скачать торрент Best Of Hand-in-Hand 1: Jack and Roger, Superstars Звезды первой величины: Джек и Роджер

!Обратная связь