Скачать через торрент музыку Начало Inception бесплатно без регистрации torrent

Статистика раздачи
Размер:  229 MB   |    Зарегистрирован:  7 лет 7 месяцев   |    .torrent скачан:  166 раз   |   
Раздают:  1  
   
загрузка...
 
Автор Сообщение

AqvaGen


Начало / Inception

Жанр: Score
Композитор: Hans Zimmer
Год выпуска диска: 2010
Страна-производитель диска: США
Аудио кодек: FLAC (*.flac)
Тип рипа: tracks+.cue
Битрейт аудио: lossless
Продолжительность: 49:20


Треклист:

1. Half Remembered Dream 1:12
2. We Built Our Own World 1:55
3. Dream Is Collapsing 2:23
4. Radical Notion 3:43
5. Old Souls 7:44
6. 528491 2:23
7. Mombasa 4:54
8. One Simple Idea 2:28
9. Dream Within A Dream 5:04
10. Waiting For A Train 9:30
11. Paradox 3:25
12. Time 4:35
 
Exact Audio Copy V0.99 prebeta 5 from 4. May 2009

EAC extraction logfile from 13. July 2010, 16:45

Hans Zimmer / Inception

Used drive : TSSTcorpDVD+-RW TS-L633C Adapter: 0 ID: 1

Read mode : SecureUtilize accurate stream : YesDefeat audio cache : YesMake use of C2 pointers : No

Read offset correction : 6Overread into Lead-In and Lead-Out : NoFill up missing offset samples with silence : YesDelete leading and trailing silent blocks : NoNull samples used in CRC calculations : YesUsed interface : Native Win32 interface for Win NT & 2000Gap handling : Appended to previous track

Used output format : User Defined EncoderSelected bitrate : 320 kBit/sQuality : HighAdd ID3 tag : NoCommand line compressor : C:\Program Files (x86)\Exact Audio Copy\Flac\flac.exeAdditional command line options : -V -8 -T "artist=%a" -T "title=%t" -T "album=%g" -T "date=%y" -T "tracknumber=%n" -T "genre=%m" %s

TOC of the extracted CD

Track | Start | Length | Start sector | End sector --------------------------------------------------------- 1 | 0:00.00 | 1:11.73 | 0 | 5397 2 | 1:11.73 | 1:55.60 | 5398 | 14082 3 | 3:07.58 | 2:23.60 | 14083 | 24867 4 | 5:31.43 | 3:42.71 | 24868 | 41588 5 | 9:14.39 | 7:43.74 | 41589 | 76387 6 | 16:58.38 | 2:23.58 | 76388 | 87170 7 | 19:22.21 | 4:54.27 | 87171 | 109247 8 | 24:16.48 | 2:28.27 | 109248 | 120374 9 | 26:45.00 | 5:04.24 | 120375 | 143198 10 | 31:49.24 | 9:30.19 | 143199 | 185967 11 | 41:19.43 | 3:25.33 | 185968 | 201375 12 | 44:45.01 | 4:35.41 | 201376 | 222041

Track 1

Filename C:\Users\Sean\Desktop\Hans Zimmer - 2010 - Inception\01 - Half Remembered Dream.wav

Pre-gap length 0:00:02.00

Peak level 94.4 % Track quality 100.0 % Test CRC F2BA89EA Copy CRC F2BA89EA Track not present in AccurateRip database Copy OK

Track 2

Filename C:\Users\Sean\Desktop\Hans Zimmer - 2010 - Inception\02 - We Built Our Own World.wav

Peak level 58.3 % Track quality 100.0 % Test CRC 8CEAFAAC Copy CRC 8CEAFAAC Track not present in AccurateRip database Copy OK

Track 3

Filename C:\Users\Sean\Desktop\Hans Zimmer - 2010 - Inception\03 - Dream Is Collapsing.wav

Peak level 94.4 % Track quality 99.9 % Test CRC BF403469 Copy CRC BF403469 Track not present in AccurateRip database Copy OK

Track 4

Filename C:\Users\Sean\Desktop\Hans Zimmer - 2010 - Inception\04 - Radical Notion.wav

Peak level 95.7 % Track quality 100.0 % Test CRC 3307C3B8 Copy CRC 3307C3B8 Track not present in AccurateRip database Copy OK

Track 5

Filename C:\Users\Sean\Desktop\Hans Zimmer - 2010 - Inception\05 - Old Souls.wav

Peak level 100.0 % Track quality 100.0 % Test CRC 0FD0C162 Copy CRC 0FD0C162 Track not present in AccurateRip database Copy OK

Track 6

Filename C:\Users\Sean\Desktop\Hans Zimmer - 2010 - Inception\06 - 528491.wav

Peak level 94.5 % Track quality 99.9 % Test CRC 7FB6D660 Copy CRC 7FB6D660 Track not present in AccurateRip database Copy OK

Track 7

Filename C:\Users\Sean\Desktop\Hans Zimmer - 2010 - Inception\07 - Mombasa.wav

Peak level 94.4 % Track quality 100.0 % Test CRC F8D9E211 Copy CRC F8D9E211 Track not present in AccurateRip database Copy OK

Track 8

Filename C:\Users\Sean\Desktop\Hans Zimmer - 2010 - Inception\08 - One Simple Idea.wav

Peak level 94.4 % Track quality 100.0 % Test CRC 1525AAB1 Copy CRC 1525AAB1 Track not present in AccurateRip database Copy OK

Track 9

Filename C:\Users\Sean\Desktop\Hans Zimmer - 2010 - Inception\09 - Dream Within A Dream.wav

Peak level 94.4 % Track quality 100.0 % Test CRC 5FEABAA8 Copy CRC 5FEABAA8 Track not present in AccurateRip database Copy OK

Track 10

Filename C:\Users\Sean\Desktop\Hans Zimmer - 2010 - Inception\10 - Waiting For A Train.wav

Peak level 99.8 % Track quality 100.0 % Test CRC F8FF6079 Copy CRC F8FF6079 Track not present in AccurateRip database Copy OK

Track 11

Filename C:\Users\Sean\Desktop\Hans Zimmer - 2010 - Inception\11 - Paradox.wav

Peak level 95.0 % Track quality 100.0 % Test CRC 978CC2DB Copy CRC 978CC2DB Track not present in AccurateRip database Copy OK

Track 12

Filename C:\Users\Sean\Desktop\Hans Zimmer - 2010 - Inception\12 - Time.wav

Peak level 97.1 % Track quality 100.0 % Test CRC 931370F9 Copy CRC 931370F9 Track not present in AccurateRip database Copy OK

None of the tracks are present in the AccurateRip database

No errors occurred

End of status report
 
REM GENRE SoundtrackREM DATE 2010REM DISCID 980B900CREM COMMENT "ExactAudioCopy v0.99pb5"FILE "01 - Half Remembered Dream.wav" WAVE TRACK 01 AUDIO INDEX 01 00:00:00FILE "02 - We Built Our Own World.wav" WAVE TRACK 02 AUDIO INDEX 01 00:00:00FILE "03 - Dream Is Collapsing.wav" WAVE TRACK 03 AUDIO INDEX 01 00:00:00FILE "04 - Radical Notion.wav" WAVE TRACK 04 AUDIO INDEX 01 00:00:00FILE "05 - Old Souls.wav" WAVE TRACK 05 AUDIO INDEX 01 00:00:00FILE "06 - 528491.wav" WAVE TRACK 06 AUDIO INDEX 01 00:00:00FILE "07 - Mombasa.wav" WAVE TRACK 07 AUDIO INDEX 01 00:00:00FILE "08 - One Simple Idea.wav" WAVE TRACK 08 AUDIO INDEX 01 00:00:00FILE "09 - Dream Within A Dream.wav" WAVE TRACK 09 AUDIO INDEX 01 00:00:00FILE "10 - Waiting For A Train.wav" WAVE TRACK 10 AUDIO INDEX 01 00:00:00FILE "11 - Paradox.wav" WAVE TRACK 11 AUDIO INDEX 01 00:00:00FILE "12 - Time.wav" WAVE TRACK 12 AUDIO INDEX 01 00:00:00


Трекер:  [ 19-Дек-2010 15:00 ]

  

Скачать .torrent

Размер .torrent файла 19 KB


Размер: 229 MB
Хэш (hash) релиза: 9b02998b9e829aa624340a7f79c43fd95db0833b

bot

Топик был перенесен в форум Саундтреки к фильмам и мультфильмам (lossless)

Перенес AqvaGen

Хотите добавить комментарий к записи скачать торрент Начало Inception

!Обратная связь