Скачать через торрент музыку Обитель зла 4: Жизнь после смерти 3D Resident Evil: Afterlife бесплатно без регистрации torrent

Статистика раздачи
Размер:  222 MB   |    Зарегистрирован:  7 лет 10 месяцев   |    .torrent скачан:  74 раза   |   
Раздают:  1  
   
загрузка...
 
Автор Сообщение

AqvaGen


Обитель зла 4: Жизнь после смерти 3D / Resident Evil: Afterlife

Жанр: Score
Композитор: Tomandandy
Год выпуска диска / фильма: 2010
Страна-производитель диска: США
Издатель (лейбл): Milan Records
Аудио кодек: FLAC (*.flac)
Тип рипа: tracks+.cue
Битрейт аудио: lossless
Продолжительность: 43:26
Наличие сканов в содержимом раздачи: нет
Треклист:
01. Tokyo (04:33)
02. Umbrella (01:20)
03. Damage (01:02)
04. Cutting (01:12)
05. Twins (01:48)
06. Exit (00:47)
07. Far (01:07)
08. Flying (01:59)
09. Memory (03:18)
10. Los Angeles (02:09)
11. Binoculars (02:54)
12. Prison (01:59)
13. Discovery (01:10)
14. Hatchet (01:23)
15. Axeman (03:07)
16. Arcadia (04:21)
17. Up (01:40)
18. Party (00:54)
19. Promise (02:13)
20. Resident Evil Suite (04:34)
 
Exact Audio Copy V0.99 prebeta 5 from 4. May 2009

EAC extraction logfile from 7. October 2010, 17:47

Tomandandy / Resident Evil: Afterlife 3D

Used drive : Optiarc BD ROM BC-5500H Adapter: 1 ID: 0

Read mode : SecureUtilize accurate stream : YesDefeat audio cache : YesMake use of C2 pointers : No

Read offset correction : 48Overread into Lead-In and Lead-Out : NoFill up missing offset samples with silence : YesDelete leading and trailing silent blocks : NoNull samples used in CRC calculations : YesUsed interface : Native Win32 interface for Win NT & 2000Gap handling : Appended to previous track

Used output format : Internal WAV RoutinesSample format : 44.100 Hz; 16 Bit; Stereo

TOC of the extracted CD

Track | Start | Length | Start sector | End sector --------------------------------------------------------- 1 | 0:00.00 | 4:32.54 | 0 | 20453 2 | 4:32.54 | 1:20.13 | 20454 | 26466 3 | 5:52.67 | 1:02.25 | 26467 | 31141 4 | 6:55.17 | 1:12.13 | 31142 | 36554 5 | 8:07.30 | 1:47.46 | 36555 | 44625 6 | 9:55.01 | 0:47.25 | 44626 | 48175 7 | 10:42.26 | 1:07.26 | 48176 | 53226 8 | 11:49.52 | 1:58.50 | 53227 | 62126 9 | 13:48.27 | 3:17.39 | 62127 | 76940 10 | 17:05.66 | 2:09.23 | 76941 | 86638 11 | 19:15.14 | 2:53.49 | 86639 | 99662 12 | 22:08.63 | 1:58.56 | 99663 | 108568 13 | 24:07.44 | 1:10.10 | 108569 | 113828 14 | 25:17.54 | 1:23.07 | 113829 | 120060 15 | 26:40.61 | 3:07.32 | 120061 | 134117 16 | 29:48.18 | 4:20.73 | 134118 | 153690 17 | 34:09.16 | 1:39.55 | 153691 | 161170 18 | 35:48.71 | 0:54.01 | 161171 | 165221 19 | 36:42.72 | 2:12.51 | 165222 | 175172 20 | 38:55.48 | 4:34.33 | 175173 | 195755

Track 1

Filename C:\Tomandandy - Resident Evil- Afterlife 3D - 2010\01 - Tomandandy - Tokyo.wav

Pre-gap length 0:00:02.00

Peak level 97.7 % Track quality 100.0 % Test CRC 7598E8DA Copy CRC 7598E8DA Copy OK

Track 2

Filename C:\Tomandandy - Resident Evil- Afterlife 3D - 2010\02 - Tomandandy - Umbrella.wav

Peak level 82.2 % Track quality 100.0 % Test CRC AA9BF566 Copy CRC AA9BF566 Copy OK

Track 3

Filename C:\Tomandandy - Resident Evil- Afterlife 3D - 2010\03 - Tomandandy - Damage.wav

Peak level 97.7 % Track quality 100.0 % Test CRC AA3D9A8B Copy CRC AA3D9A8B Copy OK

Track 4

Filename C:\Tomandandy - Resident Evil- Afterlife 3D - 2010\04 - Tomandandy - Cutting.wav

Peak level 97.7 % Track quality 100.0 % Test CRC 257E9A43 Copy CRC 257E9A43 Copy OK

Track 5

Filename C:\Tomandandy - Resident Evil- Afterlife 3D - 2010\05 - Tomandandy - Twins.wav

Peak level 97.7 % Track quality 100.0 % Test CRC 13C89129 Copy CRC 13C89129 Copy OK

Track 6

Filename C:\Tomandandy - Resident Evil- Afterlife 3D - 2010\06 - Tomandandy - Exit.wav

Peak level 87.0 % Track quality 100.0 % Test CRC F64CCDE2 Copy CRC F64CCDE2 Copy OK

Track 7

Filename C:\Tomandandy - Resident Evil- Afterlife 3D - 2010\07 - Tomandandy - Far.wav

Peak level 73.7 % Track quality 100.0 % Test CRC A1EDFA85 Copy CRC A1EDFA85 Copy OK

Track 8

Filename C:\Tomandandy - Resident Evil- Afterlife 3D - 2010\08 - Tomandandy - Flying.wav

Peak level 97.7 % Track quality 100.0 % Test CRC 309CA68B Copy CRC 309CA68B Copy OK

Track 9

Filename C:\Tomandandy - Resident Evil- Afterlife 3D - 2010\09 - Tomandandy - Memory.wav

Peak level 97.7 % Track quality 100.0 % Test CRC 758A7E9D Copy CRC 758A7E9D Copy OK

Track 10

Filename C:\Tomandandy - Resident Evil- Afterlife 3D - 2010\10 - Tomandandy - Los Angeles.wav

Peak level 97.7 % Track quality 100.0 % Test CRC EE5574B4 Copy CRC EE5574B4 Copy OK

Track 11

Filename C:\Tomandandy - Resident Evil- Afterlife 3D - 2010\11 - Tomandandy - Binoculars.wav

Peak level 97.7 % Track quality 99.9 % Test CRC A761D106 Copy CRC A761D106 Copy OK

Track 12

Filename C:\Tomandandy - Resident Evil- Afterlife 3D - 2010\12 - Tomandandy - Prison.wav

Peak level 97.7 % Track quality 100.0 % Test CRC DE208B91 Copy CRC DE208B91 Copy OK

Track 13

Filename C:\Tomandandy - Resident Evil- Afterlife 3D - 2010\13 - Tomandandy - Discovery.wav

Peak level 97.7 % Track quality 100.0 % Test CRC E6D19BE5 Copy CRC E6D19BE5 Copy OK

Track 14

Filename C:\Tomandandy - Resident Evil- Afterlife 3D - 2010\14 - Tomandandy - Hatchet.wav

Peak level 97.7 % Track quality 100.0 % Test CRC EF8CD9C2 Copy CRC EF8CD9C2 Copy OK

Track 15

Filename C:\Tomandandy - Resident Evil- Afterlife 3D - 2010\15 - Tomandandy - AxeMan.wav

Peak level 97.7 % Track quality 100.0 % Test CRC F2F87EED Copy CRC F2F87EED Copy OK

Track 16

Filename C:\Tomandandy - Resident Evil- Afterlife 3D - 2010\16 - Tomandandy - Arcadia.wav

Peak level 97.7 % Track quality 99.9 % Test CRC 6EE65852 Copy CRC 6EE65852 Copy OK

Track 17

Filename C:\Tomandandy - Resident Evil- Afterlife 3D - 2010\17 - Tomandandy - Up.wav

Peak level 97.7 % Track quality 100.0 % Test CRC E40331B7 Copy CRC E40331B7 Copy OK

Track 18

Filename C:\Tomandandy - Resident Evil- Afterlife 3D - 2010\18 - Tomandandy - Party.wav

Peak level 97.7 % Track quality 100.0 % Test CRC D243909F Copy CRC D243909F Copy OK

Track 19

Filename C:\Tomandandy - Resident Evil- Afterlife 3D - 2010\19 - Tomandandy - Promise.wav

Peak level 97.7 % Track quality 100.0 % Test CRC 2034F7BD Copy CRC 2034F7BD Copy OK

Track 20

Filename C:\Tomandandy - Resident Evil- Afterlife 3D - 2010\20 - Tomandandy - Resident Evil Suite.wav

Peak level 97.7 % Track quality 100.0 % Test CRC FB124E3D Copy CRC FB124E3D Copy OK

No errors occurred

End of status report
 
REM GENRE SoundtrackREM DATE 2010REM DISCID F50A3214REM COMMENT "ExactAudioCopy v0.99pb5"PERFORMER "Tomandandy"TITLE "Resident Evil: Afterlife 3D"FILE "01 - Tomandandy - Tokyo.wav" WAVE TRACK 01 AUDIO TITLE "Tokyo" PERFORMER "Tomandandy" INDEX 01 00:00:00FILE "02 - Tomandandy - Umbrella.wav" WAVE TRACK 02 AUDIO TITLE "Umbrella" PERFORMER "Tomandandy" INDEX 01 00:00:00FILE "03 - Tomandandy - Damage.wav" WAVE TRACK 03 AUDIO TITLE "Damage" PERFORMER "Tomandandy" INDEX 01 00:00:00FILE "04 - Tomandandy - Cutting.wav" WAVE TRACK 04 AUDIO TITLE "Cutting" PERFORMER "Tomandandy" INDEX 01 00:00:00FILE "05 - Tomandandy - Twins.wav" WAVE TRACK 05 AUDIO TITLE "Twins" PERFORMER "Tomandandy" INDEX 01 00:00:00FILE "06 - Tomandandy - Exit.wav" WAVE TRACK 06 AUDIO TITLE "Exit" PERFORMER "Tomandandy" INDEX 01 00:00:00FILE "07 - Tomandandy - Far.wav" WAVE TRACK 07 AUDIO TITLE "Far" PERFORMER "Tomandandy" INDEX 01 00:00:00FILE "08 - Tomandandy - Flying.wav" WAVE TRACK 08 AUDIO TITLE "Flying" PERFORMER "Tomandandy" INDEX 01 00:00:00FILE "09 - Tomandandy - Memory.wav" WAVE TRACK 09 AUDIO TITLE "Memory" PERFORMER "Tomandandy" INDEX 01 00:00:00FILE "10 - Tomandandy - Los Angeles.wav" WAVE TRACK 10 AUDIO TITLE "Los Angeles" PERFORMER "Tomandandy" INDEX 01 00:00:00FILE "11 - Tomandandy - Binoculars.wav" WAVE TRACK 11 AUDIO TITLE "Binoculars" PERFORMER "Tomandandy" INDEX 01 00:00:00FILE "12 - Tomandandy - Prison.wav" WAVE TRACK 12 AUDIO TITLE "Prison" PERFORMER "Tomandandy" INDEX 01 00:00:00FILE "13 - Tomandandy - Discovery.wav" WAVE TRACK 13 AUDIO TITLE "Discovery" PERFORMER "Tomandandy" INDEX 01 00:00:00FILE "14 - Tomandandy - Hatchet.wav" WAVE TRACK 14 AUDIO TITLE "Hatchet" PERFORMER "Tomandandy" INDEX 01 00:00:00FILE "15 - Tomandandy - AxeMan.wav" WAVE TRACK 15 AUDIO TITLE "AxeMan" PERFORMER "Tomandandy" INDEX 01 00:00:00FILE "16 - Tomandandy - Arcadia.wav" WAVE TRACK 16 AUDIO TITLE "Arcadia" PERFORMER "Tomandandy" INDEX 01 00:00:00FILE "17 - Tomandandy - Up.wav" WAVE TRACK 17 AUDIO TITLE "Up" PERFORMER "Tomandandy" INDEX 01 00:00:00FILE "18 - Tomandandy - Party.wav" WAVE TRACK 18 AUDIO TITLE "Party" PERFORMER "Tomandandy" INDEX 01 00:00:00FILE "19 - Tomandandy - Promise.wav" WAVE TRACK 19 AUDIO TITLE "Promise" PERFORMER "Tomandandy" INDEX 01 00:00:00FILE "20 - Tomandandy - Resident Evil Suite.wav" WAVE TRACK 20 AUDIO TITLE "Resident Evil Suite" PERFORMER "Tomandandy" INDEX 01 00:00:00


Трекер:  [ 19-Дек-2010 14:58 ]

  

Скачать .torrent

Размер .torrent файла 19 KB


Размер: 222 MB
Хэш (hash) релиза: 772d5956fdb20f44816c5b823f8f986ba0fc9c1e

Торренты, похожие на Обитель зла 4: Жизнь после смерти 3D Resident Evil: Afterlife скачать торрент

Форум Название Автор Размер S L Добавлен
Саундтреки к фильмам и мультфильмам (mp3) ·· (Score) Обитель зла 4: Жизнь после смерти 3D / Resident Evil: Afterlife (by Tomandandy) - 2010, MP3 (tracks), 320 kbps Mos 109184902104 MB 0 0 1291091986

07:39

30-Ноя-10

bot

Топик был перенесен в форум Саундтреки к фильмам и мультфильмам (lossless)

Перенес AqvaGen

Хотите добавить комментарий к записи скачать торрент Обитель зла 4: Жизнь после смерти 3D Resident Evil: Afterlife

!Обратная связь