Скачать через торрент музыку Амели Le Fabuleux Destin dAmelie Poulain бесплатно без регистрации torrent

Статистика раздачи
Размер:  270 MB   |    Зарегистрирован:  7 лет 4 месяца   |    .torrent скачан:  76 раз   |   
Раздают:  1  
   
загрузка...
 
Автор Сообщение

AqvaGen


Амели / Le Fabuleux Destin d'Amelie Poulain

Жанр: Score || Композитор: Yann Tiersen || Год выпуска: 2001 || Страна: France || Аудио кодек: FLAC || Тип рипа: tracks+.cue || Битрейт аудио: lossless
Продолжительность: 00:54:23

01 - J'y Suis Jamis Alle (01:34)
02 - Les Jours Tristes (Instrumental) (03:03)
03 - La Valse d'Amelie (02:16)
04 - Comptine d'un Autre Ete: L'Apres-midi (02:21)
05 - La Noyee (02:03)
06 - L'Autre Valse d'Amelie (01:33)
07 - Guilty (03:13)
08 - A Quai (03:32)
09 - Le Moulin (04:28)
10 - Pas Si Simple (01:53)
11 - La Valse d'Amelie (Version Orchestre) (02:00)
12 - La Valse des Vieux Os (02:20)
13 - La Dispute (04:15)
14 - Si Tu N'Etais Pas La (Frehel) (03:29)
15 - Soir de Fete (02:56)
16 - La Redecouverte (01:13)
17 - Sur Le Fil (04:24)
18 - Le Banquet (01:31)
19 - La Valse d'Amelie (Version Piano) (02:39)
20 - La Valse des Monstres (03:40)
 
Exact Audio Copy V0.99 prebeta 4 from 23. January 2008

EAC extraction logfile from 29. April 2009, 16:58

Yann Tiersen / Le Fabuleux Destin d'Amйlie Poulain

Used drive : PLEXTOR DVD-ROM PX-130A Adapter: 0 ID: 0

Read mode : SecureUtilize accurate stream : YesDefeat audio cache : YesMake use of C2 pointers : No

Read offset correction : 738Overread into Lead-In and Lead-Out : NoFill up missing offset samples with silence : YesDelete leading and trailing silent blocks : NoNull samples used in CRC calculations : YesUsed interface : Native Win32 interface for Win NT & 2000Gap handling : Appended to previous track

Used output format : User Defined EncoderSelected bitrate : 1024 kBit/sQuality : HighAdd ID3 tag : NoCommand line compressor : C:\Program Files\Exact Audio Copy\Flac\flac.exeAdditional command line options : -V -8 -T "artist=%a" -T "title=%t" -T "album=%g" -T "date=%y" -T "tracknumber=%n" -T "genre=%m" %s

TOC of the extracted CD

Track | Start | Length | Start sector | End sector --------------------------------------------------------- 1 | 0:00.22 | 1:34.35 | 22 | 7106 2 | 1:34.57 | 3:03.35 | 7107 | 20866 3 | 4:38.17 | 2:15.68 | 20867 | 31059 4 | 6:54.10 | 2:20.55 | 31060 | 41614 5 | 9:14.65 | 2:03.00 | 41615 | 50839 6 | 11:17.65 | 1:33.30 | 50840 | 57844 7 | 12:51.20 | 3:13.00 | 57845 | 72319 8 | 16:04.20 | 3:32.22 | 72320 | 88241 9 | 19:36.42 | 4:27.55 | 88242 | 108321 10 | 24:04.22 | 1:52.40 | 108322 | 116761 11 | 25:56.62 | 2:00.25 | 116762 | 125786 12 | 27:57.12 | 2:20.20 | 125787 | 136306 13 | 30:17.32 | 4:15.15 | 136307 | 155446 14 | 34:32.47 | 3:29.05 | 155447 | 171126 15 | 38:01.52 | 2:55.63 | 171127 | 184314 16 | 40:57.40 | 1:13.12 | 184315 | 189801 17 | 42:10.52 | 4:23.53 | 189802 | 209579 18 | 46:34.30 | 1:31.00 | 209580 | 216404 19 | 48:05.30 | 2:38.50 | 216405 | 228304 20 | 50:44.05 | 3:39.70 | 228305 | 244799

Track 1

Filename D:\2. Audio\Ripping\Yann Tiersen - 2001 - Le Fabuleux Destin d'Amйlie Poulain\01 - J'y Suis Jamis Alle.wav

Pre-gap length 0:00:02.29

Peak level 90.5 % Track quality 100.0 % Test CRC E4780EAA Copy CRC E4780EAA Accurately ripped (confidence 88) [8003CD55] Copy OK

Track 2

Filename D:\2. Audio\Ripping\Yann Tiersen - 2001 - Le Fabuleux Destin d'Amйlie Poulain\02 - Les Jours Tristes (instrumental).wav

Pre-gap length 0:00:01.46

Peak level 97.7 % Track quality 100.0 % Test CRC 87491847 Copy CRC 87491847 Accurately ripped (confidence 89) [35E00AAD] Copy OK

Track 3

Filename D:\2. Audio\Ripping\Yann Tiersen - 2001 - Le Fabuleux Destin d'Amйlie Poulain\03 - La Valse d'Amelie.wav

Pre-gap length 0:00:01.00

Peak level 97.9 % Track quality 100.0 % Test CRC 07AF08A7 Copy CRC 07AF08A7 Accurately ripped (confidence 88) [8DB0ADDB] Copy OK

Track 4

Filename D:\2. Audio\Ripping\Yann Tiersen - 2001 - Le Fabuleux Destin d'Amйlie Poulain\04 - Comptine d'un Autre Ete- L'Apres-midi.wav

Pre-gap length 0:00:02.26

Peak level 99.0 % Track quality 100.0 % Test CRC B7E2DE92 Copy CRC B7E2DE92 Accurately ripped (confidence 88) [F7CCF660] Copy OK

Track 5

Filename D:\2. Audio\Ripping\Yann Tiersen - 2001 - Le Fabuleux Destin d'Amйlie Poulain\05 - La Noyee.wav

Peak level 99.3 % Track quality 100.0 % Test CRC 071C3220 Copy CRC 071C3220 Accurately ripped (confidence 87) [FF442DA1] Copy OK

Track 6

Filename D:\2. Audio\Ripping\Yann Tiersen - 2001 - Le Fabuleux Destin d'Amйlie Poulain\06 - L'Autre Valse d'Amelie.wav

Peak level 79.3 % Track quality 100.0 % Test CRC F41C0E5B Copy CRC F41C0E5B Accurately ripped (confidence 87) [B071AC06] Copy OK

Track 7

Filename D:\2. Audio\Ripping\Yann Tiersen - 2001 - Le Fabuleux Destin d'Amйlie Poulain\07 - Guilty.wav

Peak level 77.7 % Track quality 100.0 % Test CRC BE6E9C43 Copy CRC BE6E9C43 Accurately ripped (confidence 86) [F997E45D] Copy OK

Track 8

Filename D:\2. Audio\Ripping\Yann Tiersen - 2001 - Le Fabuleux Destin d'Amйlie Poulain\08 - A Quai.wav

Pre-gap length 0:00:01.46

Peak level 100.0 % Track quality 100.0 % Test CRC 244A9C9B Copy CRC 244A9C9B Accurately ripped (confidence 87) [C792E7D8] Copy OK

Track 9

Filename D:\2. Audio\Ripping\Yann Tiersen - 2001 - Le Fabuleux Destin d'Amйlie Poulain\09 - Le Moulin.wav

Peak level 97.7 % Track quality 100.0 % Test CRC AD0FFA90 Copy CRC AD0FFA90 Accurately ripped (confidence 89) [A0977288] Copy OK

Track 10

Filename D:\2. Audio\Ripping\Yann Tiersen - 2001 - Le Fabuleux Destin d'Amйlie Poulain\10 - Pas Si Simple.wav

Peak level 78.1 % Track quality 99.9 % Test CRC BE269EAA Copy CRC BE269EAA Accurately ripped (confidence 89) [19FA28D3] Copy OK

Track 11

Filename D:\2. Audio\Ripping\Yann Tiersen - 2001 - Le Fabuleux Destin d'Amйlie Poulain\11 - La Valse d'Amelie (version orchestre).wav

Peak level 98.7 % Track quality 100.0 % Test CRC 7597F05B Copy CRC 7597F05B Accurately ripped (confidence 89) [9A839857] Copy OK

Track 12

Filename D:\2. Audio\Ripping\Yann Tiersen - 2001 - Le Fabuleux Destin d'Amйlie Poulain\12 - La Valse des Vieux Os.wav

Peak level 79.4 % Track quality 100.0 % Test CRC A1FFB3DC Copy CRC A1FFB3DC Accurately ripped (confidence 89) [429094DC] Copy OK

Track 13

Filename D:\2. Audio\Ripping\Yann Tiersen - 2001 - Le Fabuleux Destin d'Amйlie Poulain\13 - La Dispute.wav

Pre-gap length 0:00:02.22

Peak level 99.0 % Track quality 100.0 % Test CRC A7EB0536 Copy CRC A7EB0536 Accurately ripped (confidence 89) [CE256DFC] Copy OK

Track 14

Filename D:\2. Audio\Ripping\Yann Tiersen - 2001 - Le Fabuleux Destin d'Amйlie Poulain\14 - Si Tu N'Etais Pas La (Frehel).wav

Peak level 69.0 % Track quality 100.0 % Test CRC 4CD2827A Copy CRC 4CD2827A Accurately ripped (confidence 88) [1F575D62] Copy OK

Track 15

Filename D:\2. Audio\Ripping\Yann Tiersen - 2001 - Le Fabuleux Destin d'Amйlie Poulain\15 - Soir de Fete.wav

Peak level 83.5 % Track quality 100.0 % Test CRC D1E47528 Copy CRC D1E47528 Accurately ripped (confidence 88) [6FD59153] Copy OK

Track 16

Filename D:\2. Audio\Ripping\Yann Tiersen - 2001 - Le Fabuleux Destin d'Amйlie Poulain\16 - La Redecouverte.wav

Pre-gap length 0:00:01.46

Peak level 66.4 % Track quality 100.0 % Test CRC 6EE169A6 Copy CRC 6EE169A6 Accurately ripped (confidence 89) [00D3F5FB] Copy OK

Track 17

Filename D:\2. Audio\Ripping\Yann Tiersen - 2001 - Le Fabuleux Destin d'Amйlie Poulain\17 - Sur Le Fil.wav

Peak level 99.4 % Track quality 100.0 % Test CRC 01A32CDF Copy CRC 01A32CDF Accurately ripped (confidence 87) [E1F83A21] Copy OK

Track 18

Filename D:\2. Audio\Ripping\Yann Tiersen - 2001 - Le Fabuleux Destin d'Amйlie Poulain\18 - Le Banquet.wav

Peak level 88.5 % Track quality 99.8 % Test CRC 9125CF15 Copy CRC 9125CF15 Accurately ripped (confidence 89) [662DE929] Copy OK

Track 19

Filename D:\2. Audio\Ripping\Yann Tiersen - 2001 - Le Fabuleux Destin d'Amйlie Poulain\19 - La Valse d'Amelie (version piano).wav

Pre-gap length 0:00:02.37

Peak level 81.9 % Track quality 100.0 % Test CRC 0EEB2662 Copy CRC 0EEB2662 Accurately ripped (confidence 89) [63DD92AB] Copy OK

Track 20

Filename D:\2. Audio\Ripping\Yann Tiersen - 2001 - Le Fabuleux Destin d'Amйlie Poulain\20 - La Valse des Monstres.wav

Peak level 70.9 % Track quality 100.0 % Test CRC 14B069F8 Copy CRC 14B069F8 Accurately ripped (confidence 88) [C3FFD092] Copy OK

All tracks accurately ripped

No errors occurred

End of status report
 
REM GENRE SoundtrackREM DATE 2001REM DISCID 4A0CC014REM COMMENT "ExactAudioCopy v0.99pb4"PERFORMER "Yann Tiersen"TITLE "Le Fabuleux Destin d'Amйlie Poulain"FILE "01 - J'y Suis Jamis Alle.wav" WAVE TRACK 01 AUDIO TITLE "J'y Suis Jamis Alle" PERFORMER "Yann Tiersen" PREGAP 00:00:22 INDEX 01 00:00:00 TRACK 02 AUDIO TITLE "Les Jours Tristes (instrumental)" PERFORMER "Yann Tiersen" INDEX 00 01:33:00FILE "02 - Les Jours Tristes (instrumental).wav" WAVE INDEX 01 00:00:00 TRACK 03 AUDIO TITLE "La Valse d'Amelie" PERFORMER "Yann Tiersen" INDEX 00 03:02:35FILE "03 - La Valse d'Amelie.wav" WAVE INDEX 01 00:00:00 TRACK 04 AUDIO TITLE "Comptine d'un Autre Ete: L'Apres-midi" PERFORMER "Yann Tiersen" INDEX 00 02:13:48FILE "04 - Comptine d'un Autre Ete- L'Apres-midi.wav" WAVE INDEX 01 00:00:00FILE "05 - La Noyee.wav" WAVE TRACK 05 AUDIO TITLE "La Noyee" PERFORMER "Yann Tiersen" INDEX 01 00:00:00FILE "06 - L'Autre Valse d'Amelie.wav" WAVE TRACK 06 AUDIO TITLE "L'Autre Valse d'Amelie" PERFORMER "Yann Tiersen" INDEX 01 00:00:00FILE "07 - Guilty.wav" WAVE TRACK 07 AUDIO TITLE "Guilty" PERFORMER "Yann Tiersen" INDEX 01 00:00:00 TRACK 08 AUDIO TITLE "A Quai" PERFORMER "Yann Tiersen" INDEX 00 03:11:40FILE "08 - A Quai.wav" WAVE INDEX 01 00:00:00FILE "09 - Le Moulin.wav" WAVE TRACK 09 AUDIO TITLE "Le Moulin" PERFORMER "Yann Tiersen" INDEX 01 00:00:00FILE "10 - Pas Si Simple.wav" WAVE TRACK 10 AUDIO TITLE "Pas Si Simple" PERFORMER "Yann Tiersen" INDEX 01 00:00:00FILE "11 - La Valse d'Amelie (version orchestre).wav" WAVE TRACK 11 AUDIO TITLE "La Valse d'Amelie (version orchestre)" PERFORMER "Yann Tiersen" INDEX 01 00:00:00FILE "12 - La Valse des Vieux Os.wav" WAVE TRACK 12 AUDIO TITLE "La Valse des Vieux Os" PERFORMER "Yann Tiersen" INDEX 01 00:00:00 TRACK 13 AUDIO TITLE "La Dispute" PERFORMER "Yann Tiersen" INDEX 00 02:18:03FILE "13 - La Dispute.wav" WAVE INDEX 01 00:00:00FILE "14 - Si Tu N'Etais Pas La (Frehel).wav" WAVE TRACK 14 AUDIO TITLE "Si Tu N'Etais Pas La (Frehel)" PERFORMER "Yann Tiersen" INDEX 01 00:00:00FILE "15 - Soir de Fete.wav" WAVE TRACK 15 AUDIO TITLE "Soir de Fete" PERFORMER "Yann Tiersen" INDEX 01 00:00:00 TRACK 16 AUDIO TITLE "La Redecouverte" PERFORMER "Yann Tiersen" INDEX 00 02:54:28FILE "16 - La Redecouverte.wav" WAVE INDEX 01 00:00:00FILE "17 - Sur Le Fil.wav" WAVE TRACK 17 AUDIO TITLE "Sur Le Fil" PERFORMER "Yann Tiersen" INDEX 01 00:00:00FILE "18 - Le Banquet.wav" WAVE TRACK 18 AUDIO TITLE "Le Banquet" PERFORMER "Yann Tiersen" INDEX 01 00:00:00 TRACK 19 AUDIO TITLE "La Valse d'Amelie (version piano)" PERFORMER "Yann Tiersen" INDEX 00 01:28:47FILE "19 - La Valse d'Amelie (version piano).wav" WAVE INDEX 01 00:00:00FILE "20 - La Valse des Monstres.wav" WAVE TRACK 20 AUDIO TITLE "La Valse des Monstres" PERFORMER "Yann Tiersen" INDEX 01 00:00:00



Трекер:  [ 19-Дек-2010 16:31 ]

  

Скачать .torrent

Размер .torrent файла 12 KB


Размер: 270 MB
Хэш (hash) релиза: 80e21576dcd13336017536fd9b79a4e52b7e1286

bot

Топик был перенесен в форум Саундтреки к фильмам и мультфильмам (lossless)

Перенес AqvaGen

Хотите добавить комментарий к записи скачать торрент Амели Le Fabuleux Destin dAmelie Poulain

!Обратная связь