Скачать через торрент музыку Пипец Kick Ass - 2010, FLAC бесплатно без регистрации torrent

Статистика раздачи
Размер:  331 MB   |    Зарегистрирован:  7 лет 4 месяца   |    .torrent скачан:  85 раз   |   
Раздают:  1  
   
загрузка...
 
Автор Сообщение

AqvaGen


Пипец / Kick Ass

Жанр: Soundtrack
Год выпуска диска: 2010
Производитель диска: USA
Аудио кодек: FLAC
Тип рипа: tracks+.cue
Битрейт аудио: lossless
Продолжительность: 00:51:22
Трэклист:
1. Stand Up - The Prodigy
2. Kick Ass - MIKA Vs RedOne
3. Can't Go Back - Primal Scream
4. There's a Pot a Brewin' - The Little Ones
5. Omen - The Prodigy
6. Make Me Wanna Die - The Pretty Reckless
7. Banana Splits - The Dickies
8. Starry Eyed - Ellie Goulding
9. This Town Ain't Big Enough For The Both Of Us - Sparks
10. We're All In Love - The New York Dolls
11. Bongo Song - Zongamin
12. Per Qualche Dollaro In Piu (For A Few Dollars More) - Ennio Morricone
13. Bad Reputation - The Hit Girls
14. An American Trilogy - Elvis Presley
 
EAC extraction logfile from 30. March 2010, 20:44 for CDVarious / Kick-Ass: Music From The Motion Picture

Used drive : TSSTcorpCDDVDW SH-S203D Adapter: 1 ID: 0Read mode : Secure with NO C2, accurate stream, disable cacheRead offset correction : 6Overread into Lead-In and Lead-Out : No

Used output format : C:\Program Files (x86)\Exact Audio Copy\lame.exe (User Defined Encoder) 192 kBit/s Additional command line options : -V 0 --vbr-new --add-id3v2 --ta "%a" --tt "%t" --tg "%m" --tl "%g" --ty "%y" --tn "%n" %s %d

Other options : Fill up missing offset samples with silence : Yes Delete leading and trailing silent blocks : No Native Win32 interface for Win NT & 2000

Track 1 Filename M:\OSTs\Kick-Ass\FLAC\01 - The Prodigy - Stand Up.wav

Pre-gap length 0:00:02.00

Missing samples Peak level 0.0 % Track quality 100.0 % Test CRC 3BF2F661 Copy CRC 3BF2F661 Copy finished

Track 2 Filename M:\OSTs\Kick-Ass\02 - Mika vs Redone - Kick Ass.wav

Copy aborted

Track 3 Filename M:\OSTs\Kick-Ass\03 - Primal Scream - Can't Go Back.wav

Copy aborted

Track 4 Filename M:\OSTs\Kick-Ass\04 - The Little Ones - There's A Pot Brewin.wav

Copy aborted

Track 5 Filename M:\OSTs\Kick-Ass\05 - The Prodigy - Omen.wav

Copy aborted

Track 6 Filename M:\OSTs\Kick-Ass\06 - The Pretty Reckless - Make Me Wanna Die.wav

Copy aborted

Track 7 Filename M:\OSTs\Kick-Ass\07 - The Dickies - Banana Splits.wav

Copy aborted

Track 8 Filename M:\OSTs\Kick-Ass\08 - Ellie Goulding - Starry Eyed.wav

Copy aborted

Track 9 Filename M:\OSTs\Kick-Ass\09 - Sparks - This Town Ain't Big Enough For Both Of Us.wav

Copy aborted

Track 10 Filename M:\OSTs\Kick-Ass\10 - New York Dolls - We're All In Love.wav

Copy aborted

Track 11 Filename M:\OSTs\Kick-Ass\11 - Zongamin - Bongo Song.wav

Copy aborted

Track 12 Filename M:\OSTs\Kick-Ass\12 - Ennio Morricone - Per Qualche Dollaro In Piu (For A Few Dollars More).wav

Copy aborted

Track 13 Filename M:\OSTs\Kick-Ass\13 - The Hit Girls - Bad Reputation.wav

Copy aborted

Track 14 Filename M:\OSTs\Kick-Ass\14 - Elvis Presley - An American Trilogy.wav

Copy aborted

There were errors

End of status report

------------------------------------------------------------

EAC extraction logfile from 30. March 2010, 21:02 for CDVarious / Kick-Ass: Music From The Motion Picture

Used drive : TSSTcorpCDDVDW SH-S203D Adapter: 1 ID: 0Read mode : Secure with NO C2, accurate stream, disable cacheRead offset correction : 6Overread into Lead-In and Lead-Out : No

Used output format : C:\Program Files (x86)\Exact Audio Copy\flac.exe (User Defined Encoder) 192 kBit/s Additional command line options : -V -5 -T "artist=%a" -T "title=%t" -T "album=%g" -T "date=%y" -T "tracknumber=%n" -T "genre=%m" %s

Other options : Fill up missing offset samples with silence : Yes Delete leading and trailing silent blocks : No Native Win32 interface for Win NT & 2000

Track 1 Filename M:\OSTs\Kick-Ass\FLAC\01 - The Prodigy - Stand Up.wav

Pre-gap length 0:00:02.00

Peak level 92.1 % Track quality 100.0 % Test CRC 3BF2F661 Copy CRC 3BF2F661 Copy OK

Track 2 Filename M:\OSTs\Kick-Ass\FLAC\02 - Mika vs Redone - Kick Ass.wav

Peak level 100.0 % Track quality 100.0 % Test CRC F8BA43D3 Copy CRC F8BA43D3 Copy OK

Track 3 Filename M:\OSTs\Kick-Ass\FLAC\03 - Primal Scream - Can't Go Back.wav

Peak level 81.5 % Track quality 100.0 % Test CRC 9D6BF103 Copy CRC 9D6BF103 Copy OK

Track 4 Filename M:\OSTs\Kick-Ass\FLAC\04 - The Little Ones - There's A Pot Brewin.wav

Peak level 94.1 % Track quality 100.0 % Test CRC ECD9BAB5 Copy CRC ECD9BAB5 Copy OK

Track 5 Filename M:\OSTs\Kick-Ass\FLAC\05 - The Prodigy - Omen.wav

Peak level 81.7 % Track quality 100.0 % Test CRC 99BC9C8C Copy CRC 99BC9C8C Copy OK

Track 6 Filename M:\OSTs\Kick-Ass\FLAC\06 - The Pretty Reckless - Make Me Wanna Die.wav

Peak level 69.5 % Track quality 100.0 % Test CRC 020E2D2F Copy CRC 020E2D2F Copy OK

Track 7 Filename M:\OSTs\Kick-Ass\FLAC\07 - The Dickies - Banana Splits.wav

Peak level 90.1 % Track quality 100.0 % Test CRC 9163480F Copy CRC 9163480F Copy OK

Track 8 Filename M:\OSTs\Kick-Ass\FLAC\08 - Ellie Goulding - Starry Eyed.wav

Peak level 80.0 % Track quality 99.9 % Test CRC 332D1DA6 Copy CRC 332D1DA6 Copy OK

Track 9 Filename M:\OSTs\Kick-Ass\FLAC\09 - Sparks - This Town Ain't Big Enough For Both Of Us.wav

Peak level 96.1 % Track quality 100.0 % Test CRC 0218BC0C Copy CRC 0218BC0C Copy OK

Track 10 Filename M:\OSTs\Kick-Ass\FLAC\10 - New York Dolls - We're All In Love.wav

Peak level 89.1 % Track quality 100.0 % Test CRC 6720A9FA Copy CRC 6720A9FA Copy OK

Track 11 Filename M:\OSTs\Kick-Ass\FLAC\11 - Zongamin - Bongo Song.wav

Peak level 84.1 % Track quality 100.0 % Test CRC 430D55A8 Copy CRC 430D55A8 Copy OK

Track 12 Filename M:\OSTs\Kick-Ass\FLAC\12 - Ennio Morricone - Per Qualche Dollaro In Piu (For A Few Dollars More).wav

Peak level 88.5 % Track quality 99.9 % Test CRC F6663D3B Copy CRC F6663D3B Copy OK

Track 13 Filename M:\OSTs\Kick-Ass\FLAC\13 - The Hit Girls - Bad Reputation.wav

Peak level 97.7 % Track quality 100.0 % Test CRC 0F3C43F1 Copy CRC 0F3C43F1 Copy OK

Track 14 Filename M:\OSTs\Kick-Ass\FLAC\14 - Elvis Presley - An American Trilogy.wav

Peak level 100.0 % Track quality 100.0 % Test CRC 62D70492 Copy CRC 62D70492 Copy OK

No errors occured

End of status report
 
REM DATE 2010REM DISCID C00C0E0EREM COMMENT "ExactAudioCopy v0.95b4"PERFORMER "Various"TITLE "Kick-Ass: Music From The Motion Picture"FILE "01 - The Prodigy - Stand Up.wav" WAVE TRACK 01 AUDIO TITLE "Stand Up" PERFORMER "The Prodigy" INDEX 01 00:00:00FILE "02 - Mika vs Redone - Kick Ass.wav" WAVE TRACK 02 AUDIO TITLE "Kick Ass" PERFORMER "Mika vs Redone" INDEX 01 00:00:00FILE "03 - Primal Scream - Can't Go Back.wav" WAVE TRACK 03 AUDIO TITLE "Can't Go Back" PERFORMER "Primal Scream" INDEX 01 00:00:00FILE "04 - The Little Ones - There's A Pot Brewin.wav" WAVE TRACK 04 AUDIO TITLE "There's A Pot Brewin" PERFORMER "The Little Ones" INDEX 01 00:00:00FILE "05 - The Prodigy - Omen.wav" WAVE TRACK 05 AUDIO TITLE "Omen" PERFORMER "The Prodigy" INDEX 01 00:00:00FILE "06 - The Pretty Reckless - Make Me Wanna Die.wav" WAVE TRACK 06 AUDIO TITLE "Make Me Wanna Die" PERFORMER "The Pretty Reckless" INDEX 01 00:00:00FILE "07 - The Dickies - Banana Splits.wav" WAVE TRACK 07 AUDIO TITLE "Banana Splits" PERFORMER "The Dickies" INDEX 01 00:00:00FILE "08 - Ellie Goulding - Starry Eyed.wav" WAVE TRACK 08 AUDIO TITLE "Starry Eyed" PERFORMER "Ellie Goulding" INDEX 01 00:00:00FILE "09 - Sparks - This Town Ain't Big Enough For Both Of Us.wav" WAVE TRACK 09 AUDIO TITLE "This Town Ain't Big Enough For Both Of Us" PERFORMER "Sparks" INDEX 01 00:00:00FILE "10 - New York Dolls - We're All In Love.wav" WAVE TRACK 10 AUDIO TITLE "We're All In Love" PERFORMER "New York Dolls" INDEX 01 00:00:00FILE "11 - Zongamin - Bongo Song.wav" WAVE TRACK 11 AUDIO TITLE "Bongo Song" PERFORMER "Zongamin" INDEX 01 00:00:00FILE "12 - Ennio Morricone - Per Qualche Dollaro In Piu (For A Few Dollars More).wav" WAVE TRACK 12 AUDIO TITLE "Per Qualche Dollaro In Piu (For A Few Dollars More)" PERFORMER "Ennio Morricone" INDEX 01 00:00:00FILE "13 - The Hit Girls - Bad Reputation.wav" WAVE TRACK 13 AUDIO TITLE "Bad Reputation" PERFORMER "The Hit Girls" INDEX 01 00:00:00FILE "14 - Elvis Presley - An American Trilogy.wav" WAVE TRACK 14 AUDIO TITLE "An American Trilogy" PERFORMER "Elvis Presley" INDEX 01 00:00:00


Трекер:  [ 19-Дек-2010 14:57 ]

  

Скачать .torrent

Размер .torrent файла 53 KB


Размер: 331 MB
Хэш (hash) релиза: 4c0d6cec614601315c3dbc1b0d66c12a985b7201

bot

Топик был перенесен в форум Саундтреки к фильмам и мультфильмам (lossless)

Перенес AqvaGen

Хотите добавить комментарий к записи скачать торрент Пипец Kick Ass - 2010, FLAC

!Обратная связь