Скачать через торрент музыку Фонтан The Fountain бесплатно без регистрации torrent

Статистика раздачи
Размер:  241 MB   |    Зарегистрирован:  7 лет 11 месяцев   |    .torrent скачан:  13148 раз   |   
Раздают:  1  
   
загрузка...
 
Автор Сообщение

AqvaGen


Фонтан/The Fountain

Страна: UK
Жанр: OST
Год выпуска: 2006
Формат: FLAC (tracks+.cue)
Продолжительность: 46:04
Трэклист:
01 The Last Man
02 Holy Dread!
03 Tree Of Life
04 Stay With Me
05 Death Is A Disease
06 Xibalba
07 First Snow
08 Finish It
09 Death Is The Road To Awe
10 Together We Will Live Forever
EAC extraction logfile from 3. July 2007, 19:47 for CD
Kronos Quartet & Mogwai / The Fountain

Used drive : SONY CD-RW CRX380EE Adapter: 0 ID: 0
Read mode : Secure with NO C2, accurate stream, disable cache
Read offset correction : 6
Overread into Lead-In and Lead-Out : No

Used output format : F:\Downloads\(FLAC)\flac-1.1.2-win\bin\flac.exe (User Defined Encoder)
128 kBit/s
Additional command line options : -5 -V -T "ARTIST=%a" -T "TITLE=%t" -T "ALBUM=%g" -T "DATE=%y" -T "TRACKNUMBER=%n" -T "GENRE=%m" -T "COMMENT=EAC Flac 1.1.2 -5" %s

Other options :
Fill up missing offset samples with silence : Yes
Delete leading and trailing silent blocks : No
Native Win32 interface for Win NT & 2000

Track 1
Filename F:\Downloads\(FLAC)\(My Rips)\Kronos Quartet & Mogwai - The Fountain - Clint Mansell (2006) [FLAC]\01 - The Last Man.wav

Pre-gap length 0:00:02.00

Peak level 65.9 %
Track quality 100.0 %
Test CRC 3D24E5F9
Copy CRC 3D24E5F9
Copy OK

Track 2
Filename F:\Downloads\(FLAC)\(My Rips)\Kronos Quartet & Mogwai - The Fountain - Clint Mansell (2006) [FLAC]\02 - Holy Dread!.wav

Pre-gap length 0:00:00.08

Peak level 91.5 %
Track quality 100.0 %
Test CRC 09AEDFD3
Copy CRC 09AEDFD3
Copy OK

Track 3
Filename F:\Downloads\(FLAC)\(My Rips)\Kronos Quartet & Mogwai - The Fountain - Clint Mansell (2006) [FLAC]\03 - Tree Of Life.wav

Pre-gap length 0:00:00.05

Peak level 100.0 %
Track quality 100.0 %
Test CRC 19C0EEDC
Copy CRC 19C0EEDC
Copy OK

Track 4
Filename F:\Downloads\(FLAC)\(My Rips)\Kronos Quartet & Mogwai - The Fountain - Clint Mansell (2006) [FLAC]\04 - Stay With Me.wav

Peak level 85.7 %
Track quality 100.0 %
Test CRC 182D2768
Copy CRC 182D2768
Copy OK

Track 5
Filename F:\Downloads\(FLAC)\(My Rips)\Kronos Quartet & Mogwai - The Fountain - Clint Mansell (2006) [FLAC]\05 - Death Is A Disease.wav

Peak level 81.9 %
Track quality 100.0 %
Test CRC B95D0C9B
Copy CRC B95D0C9B
Copy OK

Track 6
Filename F:\Downloads\(FLAC)\(My Rips)\Kronos Quartet & Mogwai - The Fountain - Clint Mansell (2006) [FLAC]\06 - Xibalba.wav

Peak level 89.4 %
Track quality 100.0 %
Test CRC 2599C90D
Copy CRC 2599C90D
Copy OK

Track 7
Filename F:\Downloads\(FLAC)\(My Rips)\Kronos Quartet & Mogwai - The Fountain - Clint Mansell (2006) [FLAC]\07 - First Snow.wav

Pre-gap length 0:00:00.08

Peak level 91.2 %
Track quality 100.0 %
Test CRC 500F4F44
Copy CRC 500F4F44
Copy OK

Track 8
Filename F:\Downloads\(FLAC)\(My Rips)\Kronos Quartet & Mogwai - The Fountain - Clint Mansell (2006) [FLAC]\08 - Finish It.wav

Peak level 99.8 %
Track quality 100.0 %
Test CRC 79373423
Copy CRC 79373423
Copy OK

Track 9
Filename F:\Downloads\(FLAC)\(My Rips)\Kronos Quartet & Mogwai - The Fountain - Clint Mansell (2006) [FLAC]\09 - Death Is The Road To Awe.wav

Pre-gap length 0:00:00.06

Peak level 100.0 %
Track quality 100.0 %
Test CRC 75E36CFF
Copy CRC 75E36CFF
Copy OK

Track 10
Filename F:\Downloads\(FLAC)\(My Rips)\Kronos Quartet & Mogwai - The Fountain - Clint Mansell (2006) [FLAC]\10 - Together We Will Live Forever.wav

Peak level 89.9 %
Track quality 100.0 %
Test CRC 91B91DD0
Copy CRC 91B91DD0
Copy OK

No errors occured

End of status report


Трекер:  [ 20-Дек-2010 15:08 ]

  

Скачать .torrent

Размер .torrent файла 20 KB


Размер: 241 MB
Хэш (hash) релиза: aa4295bea937911fd06e147a2232475d40253419

bot

Топик был перенесен в форум Саундтреки к фильмам и мультфильмам (lossless)

Перенес AqvaGen

Хотите добавить комментарий к записи скачать торрент Фонтан The Fountain

!Обратная связь