Скачать через торрент музыку Шаг вперед 3D Step Up 3D - 2010, FLAC бесплатно без регистрации torrent

Статистика раздачи
Размер:  370 MB   |    Зарегистрирован:  7 лет 10 месяцев   |    .torrent скачан:  69 раз   |   
Раздают:  1  
   
загрузка...
 
Автор Сообщение

AqvaGen


Шаг вперед 3D / Step Up 3D

Жанр: Soundtrack
Год выпуска диска / фильма: 2010
Страна-производитель диска: США
Аудио кодек: FLAC (*.flac)
Тип рипа: tracks+.cue
Битрейт аудио: lossless
Продолжительность: 00:49:24
Источник: CD
Наличие сканов в содержимом раздачи: да
Треклист:
01. Flo Rida Ft. David Guetta - Club Can't Handle Me (3:52)
02. Roscoe Dash & T-Pain Ft. Fabo - My Own Step (Theme From Step Up 3D) (4:17)
03. Sophia Fresh Ft. T-Pain - This Instant (3:53)
04. Trey Songz - Already Taken (3:58)
05. Laza Morgan - This Girl (3:09)
06. Chromeo - Fancy Footwork (3:19)
07. Jesse McCartney - Up (2:43)
08. Estelle Ft. Kardinal Offishall - Freak (3:41)
09. N.A.S.A. Ft. M.I.A., Spank Rock, Santigold & Nick Zinner - Whachadoin (4:10)
10. Busta Rhymes - Tear Da Roof Off (3:37)
11. Mims - Move (If You Wanna) (3:11)
12. Get Cool - Shawty Got Moves (3:14)
13. Wisin Y Yandel - Irresistible (3:08)
14. Sophia Del Carmen Ft. Pitbull - No Te Quiero (Remix) (3:12)
 
Exact Audio Copy V0.99 prebeta 5 from 4. May 2009

EAC extraction logfile from 26. August 2010, 8:54

Various / Step Up 3D

Used drive : Optiarc DVD RW AD-7200A Adapter: 4 ID: 0

Read mode : SecureUtilize accurate stream : YesDefeat audio cache : YesMake use of C2 pointers : No

Read offset correction : 48Overread into Lead-In and Lead-Out : NoFill up missing offset samples with silence : YesDelete leading and trailing silent blocks : NoNull samples used in CRC calculations : YesUsed interface : Native Win32 interface for Win NT & 2000Gap handling : Appended to previous track

Used output format : User Defined EncoderSelected bitrate : 1024 kBit/sQuality : HighAdd ID3 tag : NoCommand line compressor : C:\Program Files\Exact Audio Copy\FLAC\FLAC.EXEAdditional command line options : -6 -V -T "ARTIST=%a" -T "TITLE=%t" -T "ALBUM=%g" -T "DATE=%y" -T "TRACKNUMBER=%n" -T "GENRE=%m" -T "COMMENT=%e" %s -o %d

TOC of the extracted CD

Track | Start | Length | Start sector | End sector --------------------------------------------------------- 1 | 0:00.00 | 3:52.63 | 0 | 17462 2 | 3:52.63 | 4:17.21 | 17463 | 36758 3 | 8:10.09 | 3:53.74 | 36759 | 54307 4 | 12:04.08 | 3:58.20 | 54308 | 72177 5 | 16:02.28 | 3:09.17 | 72178 | 86369 6 | 19:11.45 | 3:19.03 | 86370 | 101297 7 | 22:30.48 | 2:43.67 | 101298 | 113589 8 | 25:14.40 | 3:41.27 | 113590 | 130191 9 | 28:55.67 | 4:10.21 | 130192 | 148962 10 | 33:06.13 | 3:37.47 | 148963 | 165284 11 | 36:43.60 | 3:11.31 | 165285 | 179640 12 | 39:55.16 | 3:14.38 | 179641 | 194228 13 | 43:09.54 | 3:08.51 | 194229 | 208379 14 | 46:18.30 | 3:12.01 | 208380 | 222780

Track 1

Filename E:\EACrip\01. Club Can't Handle Me.wav

Pre-gap length 0:00:02.00

Peak level 89.5 % Track quality 100.0 % Test CRC 9EA5DB3E Copy CRC 9EA5DB3E Track not present in AccurateRip database Copy OK

Track 2

Filename E:\EACrip\02. My Own Step (Theme From Step Up 3D).wav

Peak level 99.8 % Track quality 100.0 % Test CRC EE46C1F7 Copy CRC EE46C1F7 Track not present in AccurateRip database Copy OK

Track 3

Filename E:\EACrip\03. This Instant.wav

Peak level 99.8 % Track quality 100.0 % Test CRC F5FE1651 Copy CRC F5FE1651 Track not present in AccurateRip database Copy OK

Track 4

Filename E:\EACrip\04. Already Taken.wav

Peak level 94.4 % Track quality 100.0 % Test CRC C9B1B666 Copy CRC C9B1B666 Track not present in AccurateRip database Copy OK

Track 5

Filename E:\EACrip\05. This Girl.wav

Peak level 100.0 % Track quality 100.0 % Test CRC F190A5B3 Copy CRC F190A5B3 Track not present in AccurateRip database Copy OK

Track 6

Filename E:\EACrip\06. Fancy Footwork.wav

Peak level 79.4 % Track quality 100.0 % Test CRC 4B78454A Copy CRC 4B78454A Track not present in AccurateRip database Copy OK

Track 7

Filename E:\EACrip\07. Up.wav

Peak level 99.8 % Track quality 100.0 % Test CRC ADD8B138 Copy CRC ADD8B138 Track not present in AccurateRip database Copy OK

Track 8

Filename E:\EACrip\08. Freak.wav

Peak level 99.8 % Track quality 100.0 % Test CRC 76E2C246 Copy CRC 76E2C246 Track not present in AccurateRip database Copy OK

Track 9

Filename E:\EACrip\09. Whachadoin .wav

Peak level 99.8 % Track quality 100.0 % Test CRC A956A2F3 Copy CRC A956A2F3 Track not present in AccurateRip database Copy OK

Track 10

Filename E:\EACrip\10. Tear Da Roof Off.wav

Peak level 99.8 % Track quality 100.0 % Test CRC 64C53761 Copy CRC 64C53761 Track not present in AccurateRip database Copy OK

Track 11

Filename E:\EACrip\11. Move (If You Wanna).wav

Peak level 100.0 % Track quality 100.0 % Test CRC A20224F5 Copy CRC A20224F5 Track not present in AccurateRip database Copy OK

Track 12

Filename E:\EACrip\12. Shawty Got Moves.wav

Peak level 99.8 % Track quality 100.0 % Test CRC 7A1DFFB2 Copy CRC 7A1DFFB2 Track not present in AccurateRip database Copy OK

Track 13

Filename E:\EACrip\13. Irresistible.wav

Peak level 99.8 % Track quality 100.0 % Test CRC 26137965 Copy CRC 26137965 Track not present in AccurateRip database Copy OK

Track 14

Filename E:\EACrip\14. No Te Quiero (Remix).wav

Peak level 100.0 % Track quality 100.0 % Test CRC C70C3CF4 Copy CRC C70C3CF4 Track not present in AccurateRip database Copy OK

None of the tracks are present in the AccurateRip database

No errors occurred

End of status report
 
REM GENRE SoundtrackREM DATE 2010REM DISCID CA0B9A0EREM COMMENT "ExactAudioCopy v0.99pb5"PERFORMER "Various"TITLE "Step Up 3D"FILE "01. Club Can't Handle Me.wav" WAVE TRACK 01 AUDIO TITLE "Club Can't Handle Me" PERFORMER "Flo Rida Ft. David Guetta" INDEX 01 00:00:00FILE "02. My Own Step (Theme From Step Up 3D).wav" WAVE TRACK 02 AUDIO TITLE "My Own Step (Theme From Step Up 3D)" PERFORMER "Roscoe Dash & T-Pain Ft. Fabo" INDEX 01 00:00:00FILE "03. This Instant.wav" WAVE TRACK 03 AUDIO TITLE "This Instant" PERFORMER "Sophia Fresh Ft. T-Pain" INDEX 01 00:00:00FILE "04. Already Taken.wav" WAVE TRACK 04 AUDIO TITLE "Already Taken" PERFORMER "Trey Songz" INDEX 01 00:00:00FILE "05. This Girl.wav" WAVE TRACK 05 AUDIO TITLE "This Girl" PERFORMER "Laza Morgan" INDEX 01 00:00:00FILE "06. Fancy Footwork.wav" WAVE TRACK 06 AUDIO TITLE "Fancy Footwork" PERFORMER "Chromeo" INDEX 01 00:00:00FILE "07. Up.wav" WAVE TRACK 07 AUDIO TITLE "Up" PERFORMER "Jesse McCartney" INDEX 01 00:00:00FILE "08. Freak.wav" WAVE TRACK 08 AUDIO TITLE "Freak" PERFORMER "Estelle Ft. Kardinal Offishall" INDEX 01 00:00:00FILE "09. Whachadoin .wav" WAVE TRACK 09 AUDIO TITLE "Whachadoin?" PERFORMER "N.A.S.A. Ft. M.I.A., Spank Rock, Santigold & Nick Zinner" INDEX 01 00:00:00FILE "10. Tear Da Roof Off.wav" WAVE TRACK 10 AUDIO TITLE "Tear Da Roof Off" PERFORMER "Busta Rhymes" INDEX 01 00:00:00FILE "11. Move (If You Wanna).wav" WAVE TRACK 11 AUDIO TITLE "Move (If You Wanna)" PERFORMER "Mims" INDEX 01 00:00:00FILE "12. Shawty Got Moves.wav" WAVE TRACK 12 AUDIO TITLE "Shawty Got Moves" PERFORMER "Get Cool" INDEX 01 00:00:00FILE "13. Irresistible.wav" WAVE TRACK 13 AUDIO TITLE "Irresistible" PERFORMER "Wisin Y Yandel" INDEX 01 00:00:00FILE "14. No Te Quiero (Remix).wav" WAVE TRACK 14 AUDIO TITLE "No Te Quiero (Remix)" PERFORMER "Sophia Del Carmen Ft. Pitbull" INDEX 01 00:00:00


Трекер:  [ 19-Дек-2010 14:56 ]

  

Скачать .torrent

Размер .torrent файла 16 KB


Размер: 370 MB
Хэш (hash) релиза: cdec8701ed76f528f34221d88732a19065b77e8e

bot

Топик был перенесен в форум Саундтреки к фильмам и мультфильмам (lossless)

Перенес AqvaGen

Хотите добавить комментарий к записи скачать торрент Шаг вперед 3D Step Up 3D - 2010, FLAC

!Обратная связь