Скачать через торрент музыку Гарри Поттер и Дары Смерти: Часть 1 Harry Potter And The Deathly Hallows: Part 1 бесплатно без регистрации torrent

Статистика раздачи
Размер:  326 MB   |    Зарегистрирован:  7 лет 8 месяцев   |    .torrent скачан:  70 раз   |   
Раздают:  1  
   
загрузка...
 
Автор Сообщение

AqvaGen


Гарри Поттер и Дары Смерти: Часть 1


(Harry Potter And The Deathly Hallows: Part 1)


Жанр: Score
Композитор: Alexandre Desplat
Год выпуска диска: 2010
Страна-производитель диска: US
Издатель (лейбл): WaterTower Music
Номер по каталогу: 39212
Аудио кодек: FLAC (*.flac)
Тип рипа: tracks+.cue
Битрейт аудио: lossless
Продолжительность: 01:13:56
Наличие сканов в содержимом раздачи: нет
01. Obliviate (3:02)
02. Snape To Malfoy Manor (1:58)
03. Polyjuice Potion (3:32)*
04. Sky Battle (3:49)*
05. At The Burrow (2:35)
06. Harry And Ginny (1:44)
07. The Will (3:39)*
08. Death Eaters (3:15)
09. Dobby (3:49)
10. Ministry Of Magic (1:46)
11. Detonators (2:23)
12. The Locket (1:52)
13. Fireplaces Escape (2:55)
14. Ron Leaves (2:36)
15. The Exodus (1:38)
16. Godric's Hollow Graveyard (3:15)
17. Bathilda Bagshot (3:54)
18. Hermione's Parents (5:51)
19. Destroying The Locket (1:11)
20. Ron's Speech (2:17)
21. Lovegood (3:28)
22. The Deathly Hallows (3:18)
23. Captured And Tortured (2:57)
24. Rescuing Hermione (1:51)
25. Farewell To Dobby (3:44)
26. The Elder Wand (1:37)


* "Hedwig's Theme" Written by John Williams
 
Exact Audio Copy V0.99 prebeta 5 from 4. May 2009

EAC extraction logfile from 17. November 2010, 11:07

Alexandre Desplat / Harry Potter And The Deathly Hallows, Part 1

Used drive : SONY DVD RW DRU-700A Adapter: 0 ID: 1

Read mode : SecureUtilize accurate stream : YesDefeat audio cache : YesMake use of C2 pointers : No

Read offset correction : 12Overread into Lead-In and Lead-Out : NoFill up missing offset samples with silence : YesDelete leading and trailing silent blocks : NoNull samples used in CRC calculations : NoUsed interface : Native Win32 interface for Win NT & 2000Gap handling : Appended to previous track

Used output format : User Defined EncoderSelected bitrate : 320 kBit/sQuality : HighAdd ID3 tag : NoCommand line compressor : C:\Program Files (x86)\Exact Audio Copy\FLAC\FLAC.EXEAdditional command line options : -V -8 -T "artist=%a" -T "title=%t" -T "album=%g" -T "date=%y" -T "tracknumber=%n" -T "genre=%m" %s

TOC of the extracted CD

Track | Start | Length | Start sector | End sector --------------------------------------------------------- 1 | 0:00.00 | 3:02.15 | 0 | 13664 2 | 3:02.15 | 1:58.35 | 13665 | 22549 3 | 5:00.50 | 3:32.31 | 22550 | 38480 4 | 8:33.06 | 3:48.49 | 38481 | 55629 5 | 12:21.55 | 2:35.11 | 55630 | 67265 6 | 14:56.66 | 1:43.64 | 67266 | 75054 7 | 16:40.55 | 3:39.19 | 75055 | 91498 8 | 20:19.74 | 3:14.66 | 91499 | 106114 9 | 23:34.65 | 3:49.08 | 106115 | 123297 10 | 27:23.73 | 1:46.31 | 123298 | 131278 11 | 29:10.29 | 2:23.37 | 131279 | 142040 12 | 31:33.66 | 1:52.22 | 142041 | 150462 13 | 33:26.13 | 2:54.44 | 150463 | 163556 14 | 36:20.57 | 2:35.67 | 163557 | 175248 15 | 38:56.49 | 1:37.39 | 175249 | 182562 16 | 40:34.13 | 3:15.02 | 182563 | 197189 17 | 43:49.15 | 3:54.33 | 197190 | 214772 18 | 47:43.48 | 5:50.69 | 214773 | 241091 19 | 53:34.42 | 1:10.72 | 241092 | 246413 20 | 54:45.39 | 2:16.44 | 246414 | 256657 21 | 57:02.08 | 3:27.39 | 256658 | 272221 22 | 60:29.47 | 3:17.64 | 272222 | 287060 23 | 63:47.36 | 2:56.43 | 287061 | 300303 24 | 66:44.04 | 1:50.47 | 300304 | 308600 25 | 68:34.51 | 3:43.46 | 308601 | 325371 26 | 72:18.22 | 1:36.67 | 325372 | 332638

Track 1

Filename P:\Music\Harry Potter And The Deathly Hallows, Part 1\Harry Potter And The Deathly Hallows, Part 1 (2010, FLAC) - Alexandre Desplat\01 - Obliviate.wav

Pre-gap length 0:00:02.00

Peak level 98.0 % Track quality 100.0 % Test CRC 2D21AB92 Copy CRC 2D21AB92 Track not present in AccurateRip database Copy OK

Track 2

Filename P:\Music\Harry Potter And The Deathly Hallows, Part 1\Harry Potter And The Deathly Hallows, Part 1 (2010, FLAC) - Alexandre Desplat\02 - Snape To Malfoy Manor.wav

Pre-gap length 0:00:00.38

Peak level 96.4 % Track quality 100.0 % Test CRC 8F9C157E Copy CRC 8F9C157E Track not present in AccurateRip database Copy OK

Track 3

Filename P:\Music\Harry Potter And The Deathly Hallows, Part 1\Harry Potter And The Deathly Hallows, Part 1 (2010, FLAC) - Alexandre Desplat\03 - Polyjuice Potion.wav

Peak level 98.0 % Track quality 100.0 % Test CRC 9D879B42 Copy CRC 9D879B42 Track not present in AccurateRip database Copy OK

Track 4

Filename P:\Music\Harry Potter And The Deathly Hallows, Part 1\Harry Potter And The Deathly Hallows, Part 1 (2010, FLAC) - Alexandre Desplat\04 - Sky Battle.wav

Pre-gap length 0:00:00.16

Peak level 98.0 % Track quality 100.0 % Test CRC 1240BF1D Copy CRC 1240BF1D Track not present in AccurateRip database Copy OK

Track 5

Filename P:\Music\Harry Potter And The Deathly Hallows, Part 1\Harry Potter And The Deathly Hallows, Part 1 (2010, FLAC) - Alexandre Desplat\05 - At The Burrow.wav

Peak level 88.4 % Track quality 100.0 % Test CRC 79224987 Copy CRC 79224987 Track not present in AccurateRip database Copy OK

Track 6

Filename P:\Music\Harry Potter And The Deathly Hallows, Part 1\Harry Potter And The Deathly Hallows, Part 1 (2010, FLAC) - Alexandre Desplat\06 - Harry And Ginny.wav

Peak level 46.8 % Track quality 100.0 % Test CRC 9C5E3BAF Copy CRC 9C5E3BAF Track not present in AccurateRip database Copy OK

Track 7

Filename P:\Music\Harry Potter And The Deathly Hallows, Part 1\Harry Potter And The Deathly Hallows, Part 1 (2010, FLAC) - Alexandre Desplat\07 - The Will.wav

Pre-gap length 0:00:00.20

Peak level 98.0 % Track quality 100.0 % Test CRC 57065A81 Copy CRC 57065A81 Track not present in AccurateRip database Copy OK

Track 8

Filename P:\Music\Harry Potter And The Deathly Hallows, Part 1\Harry Potter And The Deathly Hallows, Part 1 (2010, FLAC) - Alexandre Desplat\08 - Death Eaters.wav

Peak level 98.0 % Track quality 100.0 % Test CRC F49A9F8B Copy CRC F49A9F8B Track not present in AccurateRip database Copy OK

Track 9

Filename P:\Music\Harry Potter And The Deathly Hallows, Part 1\Harry Potter And The Deathly Hallows, Part 1 (2010, FLAC) - Alexandre Desplat\09 - Dobby.wav

Pre-gap length 0:00:00.04

Peak level 93.0 % Track quality 99.9 % Test CRC 18E21425 Copy CRC 18E21425 Track not present in AccurateRip database Copy OK

Track 10

Filename P:\Music\Harry Potter And The Deathly Hallows, Part 1\Harry Potter And The Deathly Hallows, Part 1 (2010, FLAC) - Alexandre Desplat\10 - Ministry Of Magic.wav

Pre-gap length 0:00:00.22

Peak level 98.0 % Track quality 100.0 % Test CRC FB606E53 Copy CRC FB606E53 Track not present in AccurateRip database Copy OK

Track 11

Filename P:\Music\Harry Potter And The Deathly Hallows, Part 1\Harry Potter And The Deathly Hallows, Part 1 (2010, FLAC) - Alexandre Desplat\11 - Detonators.wav

Peak level 98.0 % Track quality 100.0 % Test CRC 618A3F3D Copy CRC 618A3F3D Track not present in AccurateRip database Copy OK

Track 12

Filename P:\Music\Harry Potter And The Deathly Hallows, Part 1\Harry Potter And The Deathly Hallows, Part 1 (2010, FLAC) - Alexandre Desplat\12 - The Locket.wav

Pre-gap length 0:00:00.11

Peak level 97.8 % Track quality 100.0 % Test CRC 4B0286B3 Copy CRC 4B0286B3 Track not present in AccurateRip database Copy OK

Track 13

Filename P:\Music\Harry Potter And The Deathly Hallows, Part 1\Harry Potter And The Deathly Hallows, Part 1 (2010, FLAC) - Alexandre Desplat\13 - Fireplaces Escape.wav

Pre-gap length 0:00:00.14

Peak level 98.0 % Track quality 100.0 % Test CRC DAABC0EE Copy CRC DAABC0EE Track not present in AccurateRip database Copy OK

Track 14

Filename P:\Music\Harry Potter And The Deathly Hallows, Part 1\Harry Potter And The Deathly Hallows, Part 1 (2010, FLAC) - Alexandre Desplat\14 - Ron Leaves.wav

Pre-gap length 0:00:00.73

Peak level 90.8 % Track quality 100.0 % Test CRC 9B632EFF Copy CRC 9B632EFF Track not present in AccurateRip database Copy OK

Track 15

Filename P:\Music\Harry Potter And The Deathly Hallows, Part 1\Harry Potter And The Deathly Hallows, Part 1 (2010, FLAC) - Alexandre Desplat\15 - The Exodus.wav

Pre-gap length 0:00:00.07

Peak level 98.0 % Track quality 100.0 % Test CRC 764F7C45 Copy CRC 764F7C45 Track not present in AccurateRip database Copy OK

Track 16

Filename P:\Music\Harry Potter And The Deathly Hallows, Part 1\Harry Potter And The Deathly Hallows, Part 1 (2010, FLAC) - Alexandre Desplat\16 - Godric's Hollow Graveyard.wav

Pre-gap length 0:00:00.26

Peak level 77.4 % Track quality 100.0 % Test CRC DBE890CE Copy CRC DBE890CE Track not present in AccurateRip database Copy OK

Track 17

Filename P:\Music\Harry Potter And The Deathly Hallows, Part 1\Harry Potter And The Deathly Hallows, Part 1 (2010, FLAC) - Alexandre Desplat\17 - Bathilda Bagshot.wav

Peak level 98.0 % Track quality 99.9 % Test CRC 18D901F0 Copy CRC 18D901F0 Track not present in AccurateRip database Copy OK

Track 18

Filename P:\Music\Harry Potter And The Deathly Hallows, Part 1\Harry Potter And The Deathly Hallows, Part 1 (2010, FLAC) - Alexandre Desplat\18 - Hermione's Parents.wav

Peak level 89.5 % Track quality 100.0 % Test CRC E66EFC7E Copy CRC E66EFC7E Track not present in AccurateRip database Copy OK

Track 19

Filename P:\Music\Harry Potter And The Deathly Hallows, Part 1\Harry Potter And The Deathly Hallows, Part 1 (2010, FLAC) - Alexandre Desplat\19 - Destroying The Locket.wav

Peak level 97.9 % Track quality 100.0 % Test CRC C743AC1B Copy CRC C743AC1B Track not present in AccurateRip database Copy OK

Track 20

Filename P:\Music\Harry Potter And The Deathly Hallows, Part 1\Harry Potter And The Deathly Hallows, Part 1 (2010, FLAC) - Alexandre Desplat\20 - Ron's Speech.wav

Pre-gap length 0:00:00.30

Peak level 54.1 % Track quality 100.0 % Test CRC 8AF10F85 Copy CRC 8AF10F85 Track not present in AccurateRip database Copy OK

Track 21

Filename P:\Music\Harry Potter And The Deathly Hallows, Part 1\Harry Potter And The Deathly Hallows, Part 1 (2010, FLAC) - Alexandre Desplat\21 - Lovegood.wav

Peak level 96.6 % Track quality 99.9 % Test CRC F7C3DEBF Copy CRC F7C3DEBF Track not present in AccurateRip database Copy OK

Track 22

Filename P:\Music\Harry Potter And The Deathly Hallows, Part 1\Harry Potter And The Deathly Hallows, Part 1 (2010, FLAC) - Alexandre Desplat\22 - The Deathly Hallows.wav

Pre-gap length 0:00:00.22

Peak level 98.0 % Track quality 100.0 % Test CRC CEDD060D Copy CRC CEDD060D Track not present in AccurateRip database Copy OK

Track 23

Filename P:\Music\Harry Potter And The Deathly Hallows, Part 1\Harry Potter And The Deathly Hallows, Part 1 (2010, FLAC) - Alexandre Desplat\23 - Captured And Tortured.wav

Pre-gap length 0:00:00.46

Peak level 98.0 % Track quality 100.0 % Test CRC 002BF20F Copy CRC 002BF20F Track not present in AccurateRip database Copy OK

Track 24

Filename P:\Music\Harry Potter And The Deathly Hallows, Part 1\Harry Potter And The Deathly Hallows, Part 1 (2010, FLAC) - Alexandre Desplat\24 - Rescuing Hermione.wav

Peak level 98.0 % Track quality 100.0 % Test CRC 1E1B4432 Copy CRC 1E1B4432 Track not present in AccurateRip database Copy OK

Track 25

Filename P:\Music\Harry Potter And The Deathly Hallows, Part 1\Harry Potter And The Deathly Hallows, Part 1 (2010, FLAC) - Alexandre Desplat\25 - Farewell To Dobby.wav

Peak level 90.6 % Track quality 100.0 % Test CRC B23848AB Copy CRC B23848AB Track not present in AccurateRip database Copy OK

Track 26

Filename P:\Music\Harry Potter And The Deathly Hallows, Part 1\Harry Potter And The Deathly Hallows, Part 1 (2010, FLAC) - Alexandre Desplat\26 - The Elder Wand.wav

Pre-gap length 0:00:00.15

Peak level 98.0 % Track quality 100.0 % Test CRC 5A8E0302 Copy CRC 5A8E0302 Track not present in AccurateRip database Copy OK

None of the tracks are present in the AccurateRip database

No errors occurred

End of status report
 
REM GENRE SoundtrackREM DATE 2010REM DISCID 5A11531AREM COMMENT "ExactAudioCopy v0.99pb5"CATALOG 26010122515=7FILE "01 - Obliviate.wav" WAVE TRACK 01 AUDIO ISRC 9P4185100734 INDEX 01 00:00:00 TRACK 02 AUDIO ISRC 9P4185100734 INDEX 00 03:01:52FILE "02 - Snape To Malfoy Manor.wav" WAVE INDEX 01 00:00:00FILE "03 - Polyjuice Potion.wav" WAVE TRACK 03 AUDIO ISRC 9P4185100734 INDEX 01 00:00:00 TRACK 04 AUDIO ISRC 9P4185100734 INDEX 00 03:32:15FILE "04 - Sky Battle.wav" WAVE INDEX 01 00:00:00FILE "05 - At The Burrow.wav" WAVE TRACK 05 AUDIO ISRC 9P4185100734 INDEX 01 00:00:00FILE "06 - Harry And Ginny.wav" WAVE TRACK 06 AUDIO ISRC 9P4185100734 INDEX 01 00:00:00 TRACK 07 AUDIO ISRC 9P4185100734 INDEX 00 01:43:44FILE "07 - The Will.wav" WAVE INDEX 01 00:00:00FILE "08 - Death Eaters.wav" WAVE TRACK 08 AUDIO ISRC 9P4185100734 INDEX 01 00:00:00 TRACK 09 AUDIO ISRC 9P4185100734 INDEX 00 03:14:62FILE "09 - Dobby.wav" WAVE INDEX 01 00:00:00 TRACK 10 AUDIO ISRC 9P4185100734 INDEX 00 03:48:61FILE "10 - Ministry Of Magic.wav" WAVE INDEX 01 00:00:00FILE "11 - Detonators.wav" WAVE TRACK 11 AUDIO ISRC 9P4185100734 INDEX 01 00:00:00 TRACK 12 AUDIO ISRC 9P4185100734 INDEX 00 02:23:26FILE "12 - The Locket.wav" WAVE INDEX 01 00:00:00 TRACK 13 AUDIO ISRC 9P4185100734 INDEX 00 01:52:08FILE "13 - Fireplaces Escape.wav" WAVE INDEX 01 00:00:00 TRACK 14 AUDIO ISRC 9P4185100734 INDEX 00 02:53:46FILE "14 - Ron Leaves.wav" WAVE INDEX 01 00:00:00 TRACK 15 AUDIO ISRC 9P4185100734 INDEX 00 02:35:60FILE "15 - The Exodus.wav" WAVE INDEX 01 00:00:00 TRACK 16 AUDIO ISRC 9P4185100734 INDEX 00 01:37:13FILE "16 - Godric's Hollow Graveyard.wav" WAVE INDEX 01 00:00:00FILE "17 - Bathilda Bagshot.wav" WAVE TRACK 17 AUDIO ISRC 9P4185100734 INDEX 01 00:00:00FILE "18 - Hermione's Parents.wav" WAVE TRACK 18 AUDIO ISRC 9P4185100734 INDEX 01 00:00:00FILE "19 - Destroying The Locket.wav" WAVE TRACK 19 AUDIO ISRC 9P4185100734 INDEX 01 00:00:00 TRACK 20 AUDIO ISRC 9P4185100734 INDEX 00 01:10:42FILE "20 - Ron's Speech.wav" WAVE INDEX 01 00:00:00FILE "21 - Lovegood.wav" WAVE TRACK 21 AUDIO ISRC 9P4185100734 INDEX 01 00:00:00 TRACK 22 AUDIO ISRC 9P4185100734 INDEX 00 03:27:17FILE "22 - The Deathly Hallows.wav" WAVE INDEX 01 00:00:00 TRACK 23 AUDIO ISRC 9P4185100734 INDEX 00 03:17:18FILE "23 - Captured And Tortured.wav" WAVE INDEX 01 00:00:00FILE "24 - Rescuing Hermione.wav" WAVE TRACK 24 AUDIO ISRC 9P4185100734 INDEX 01 00:00:00FILE "25 - Farewell To Dobby.wav" WAVE TRACK 25 AUDIO ISRC 9P4185100734 INDEX 01 00:00:00 TRACK 26 AUDIO ISRC 9P4185100734 INDEX 00 03:43:31FILE "26 - The Elder Wand.wav" WAVE INDEX 01 00:00:00



Трекер:  [ 19-Дек-2010 14:56 ]

  

Скачать .torrent

Размер .torrent файла 15 KB


Размер: 326 MB
Хэш (hash) релиза: f1e1e5f7c7ea1db868cf23c3df4eb6e18ff27b42

Торренты, похожие на Гарри Поттер и Дары Смерти: Часть 1 Harry Potter And The Deathly Hallows: Part 1 скачать торрент

Форум Название Автор Размер S L Добавлен
Саундтреки к фильмам и мультфильмам (lossless) ·· (Score) Гарри Поттер и Дары Смерти: Часть 1 / Harry Potter And The Deathly Hallows: Part 1 (WEB / 5.1 Dolby Pro Logic II) (by Alexandre Desplat) - 2010, FLAC (tracks), lossless FRANKS 306329005292 MB 0 0 1292268447

22:27

13-Дек-10

bot

Топик был перенесен в форум Саундтреки к фильмам и мультфильмам (lossless)

Перенес AqvaGen

Хотите добавить комментарий к записи скачать торрент Гарри Поттер и Дары Смерти: Часть 1 Harry Potter And The Deathly Hallows: Part 1

!Обратная связь