Скачать через торрент музыку Рапунцель: Запутанная история Tangled бесплатно без регистрации torrent

Статистика раздачи
Размер:  291 MB   |    Зарегистрирован:  7 лет 10 месяцев   |    .torrent скачан:  183 раза   |   
Раздают:  1  
   
загрузка...
 
Автор Сообщение

AqvaGen


Рапунцель: Запутанная история / Tangled

Жанр: Score / Soundtrack || Композитор: Alan Menken || Год выпуска: 2010 || Страна: USA || Аудио кодек: FLAC || Тип рипа: tracks+.cue || Битрейт аудио: lossless
Продолжительность: 00:55:47

01. Mandy Moore - When Will My Life Begin (02:32)
02. Mandy Moore - When Will My Life Begin (Reprise 1) (01:03)
03. Donna Murphy - Mother Knows Best (03:10)
04. Mandy Moore - When Will My Life Begin (Reprise 2) (02:06)
05. Brad Garrett, Jeffrey Tambor, Mandy Moore, Zachary Levi & The Thug Chorus - I've Got A Dream (03:11)
06. Donna Murphy - Mother Knows Best (Reprise) (01:38)
07. Mandy Moore, Zachary Levi - I See The Light (03:44)
08. Mandy Moore - Healing Incantation (00:54)
09. Alan Menken - Flynn Wanted (02:51)
10. Donna Murphy, Delaney Stein - Prologue Songs And Score (02:03)
11. Alan Menken - Horse With No Rider (01:57)
12. Alan Menken - Escape Route (01:57)
13. Alan Menken - Campfire (03:22)
14. Alan Menken - Kingdom Dance (02:20)
15. Alan Menken - Waiting For The Lights (02:48)
16. Alan Menken - Return To Mother (02:07)
17. Alan Menken - Realization And Escape (05:51)
18. Mandy Moore - The Tear Heals (07:38)
19. Alan Menken - Kingdom Celebration (01:51)
20. Grace Potter - Something That I Want (02:43)
 
Exact Audio Copy V0.99 prebeta 4 from 23. January 2008

EAC extraction logfile from 3. December 2010, 18:00

Various / Tangled (Soundtrack)

Used drive : TSSTcorpCDDVDW TS-H653N Adapter: 2 ID: 2

Read mode : SecureUtilize accurate stream : YesDefeat audio cache : YesMake use of C2 pointers : No

Read offset correction : 6Overread into Lead-In and Lead-Out : NoFill up missing offset samples with silence : YesDelete leading and trailing silent blocks : NoNull samples used in CRC calculations : YesUsed interface : Installed external ASPI interfaceGap handling : Appended to previous track

Used output format : User Defined EncoderSelected bitrate : 320 kBit/sQuality : HighAdd ID3 tag : NoCommand line compressor : C:\Program Files\Exact Audio Copy\FLAC\FLAC.EXEAdditional command line options : -V -8 -T "artist=%a" -T "title=%t" -T "album=%g" -T "date=%y" -T "tracknumber=%n" -T "genre=%m" %s

TOC of the extracted CD

Track | Start | Length | Start sector | End sector --------------------------------------------------------- 1 | 0:00.00 | 2:32.25 | 0 | 11424 2 | 2:32.25 | 1:03.16 | 11425 | 16165 3 | 3:35.41 | 3:10.33 | 16166 | 30448 4 | 6:45.74 | 2:06.07 | 30449 | 39905 5 | 8:52.06 | 3:11.31 | 39906 | 54261 6 | 12:03.37 | 1:38.24 | 54262 | 61635 7 | 13:41.61 | 3:44.18 | 61636 | 78453 8 | 17:26.04 | 0:54.33 | 78454 | 82536 9 | 18:20.37 | 2:51.27 | 82537 | 95388 10 | 21:11.64 | 2:02.43 | 95389 | 104581 11 | 23:14.32 | 1:56.71 | 104582 | 113352 12 | 25:11.28 | 1:57.32 | 113353 | 122159 13 | 27:08.60 | 3:21.50 | 122160 | 137284 14 | 30:30.35 | 2:20.31 | 137285 | 147815 15 | 32:50.66 | 2:47.52 | 147816 | 160392 16 | 35:38.43 | 2:06.41 | 160393 | 169883 17 | 37:45.09 | 5:50.51 | 169884 | 196184 18 | 43:35.60 | 7:37.52 | 196185 | 230511 19 | 51:13.37 | 1:50.60 | 230512 | 238821 20 | 53:04.22 | 2:43.21 | 238822 | 251067 21 | 58:19.43 | 1:45.34 | 262468 | 270376

Track 1

Filename 01 - Mandy Moore as 'Rapunzel' - When Will My Life Begin.wav

Pre-gap length 0:00:02.00

Peak level 97.7 % Track quality 100.0 % Test CRC 8EFDC4DD Copy CRC 8EFDC4DD Track not present in AccurateRip database Copy OK

Track 2

Filename 02 - Mandy Moore as 'Rapunzel' - When Will My Life Begin (Reprise 1).wav

Peak level 81.4 % Track quality 100.0 % Test CRC 38B7C84E Copy CRC 38B7C84E Track not present in AccurateRip database Copy OK

Track 3

Filename 03 - Donna Murphy as 'Mother Gothel' - Mother Knows Best.wav

Peak level 97.7 % Track quality 100.0 % Test CRC 70239DC9 Copy CRC 70239DC9 Track not present in AccurateRip database Copy OK

Track 4

Filename 04 - Mandy Moore as 'Rapunzel' - When Will My Life Begin (Reprise 2).wav

Peak level 97.7 % Track quality 100.0 % Test CRC EF61B587 Copy CRC EF61B587 Track not present in AccurateRip database Copy OK

Track 5

Filename 05 - Brad Garrett as 'Hook Hand Thug', Jeffrey Tambor as 'Big Nose Thug', Mandy Moore as 'Rapunzel', Zachary Levi as 'Flynn Rider' & The Thug Chorus - I've Got A Dream.wav

Peak level 97.7 % Track quality 100.0 % Test CRC 07065F9E Copy CRC 07065F9E Track not present in AccurateRip database Copy OK

Track 6

Filename 06 - Donna Murphy as 'Mother Gothel' - Mother Knows Best (Reprise).wav

Peak level 97.7 % Track quality 100.0 % Test CRC 30BC620F Copy CRC 30BC620F Track not present in AccurateRip database Copy OK

Track 7

Filename 07 - Mandy Moore as 'Rapunzel', Zachary Levi as 'Flynn Rider' - I See The Light.wav

Peak level 97.7 % Track quality 100.0 % Test CRC B8E3F37E Copy CRC B8E3F37E Track not present in AccurateRip database Copy OK

Track 8

Filename 08 - Mandy Moore as 'Rapunzel' - Healing Incantation.wav

Peak level 35.5 % Track quality 99.8 % Test CRC 41F617F5 Copy CRC 41F617F5 Track not present in AccurateRip database Copy OK

Track 9

Filename 09 - Score - Flynn Wanted.wav

Peak level 97.7 % Track quality 99.9 % Test CRC E7E14DA5 Copy CRC E7E14DA5 Track not present in AccurateRip database Copy OK

Track 10

Filename 10 - Donna Murphy as 'Mother Gothel', Delaney Stein as 'Young Rapunzel' - Prologue Songs And Score.wav

Peak level 97.7 % Track quality 100.0 % Test CRC 695ECC6E Copy CRC 695ECC6E Track not present in AccurateRip database Copy OK

Track 11

Filename 11 - Score - Horse With No Rider.wav

Peak level 97.7 % Track quality 100.0 % Test CRC 3054B8F7 Copy CRC 3054B8F7 Track not present in AccurateRip database Copy OK

Track 12

Filename 12 - Score - Escape Route.wav

Peak level 97.7 % Track quality 100.0 % Test CRC 73DB7833 Copy CRC 73DB7833 Track not present in AccurateRip database Copy OK

Track 13

Filename 13 - Score - Campfire.wav

Peak level 97.7 % Track quality 100.0 % Test CRC 3D923D95 Copy CRC 3D923D95 Track not present in AccurateRip database Copy OK

Track 14

Filename 14 - Score - Kingdom Dance.wav

Peak level 97.7 % Track quality 100.0 % Test CRC 95103A65 Copy CRC 95103A65 Track not present in AccurateRip database Copy OK

Track 15

Filename 15 - Score - Waiting For The Lights.wav

Peak level 98.8 % Track quality 99.9 % Test CRC A50B5539 Copy CRC A50B5539 Track not present in AccurateRip database Copy OK

Track 16

Filename 16 - Score - Return To Mother.wav

Peak level 81.7 % Track quality 100.0 % Test CRC E819FCFC Copy CRC E819FCFC Track not present in AccurateRip database Copy OK

Track 17

Filename 17 - Score - Realization And Escape.wav

Peak level 97.7 % Track quality 100.0 % Test CRC BA854D0E Copy CRC BA854D0E Track not present in AccurateRip database Copy OK

Track 18

Filename 18 - Mandy Moore as 'Rapunzel' - The Tear Heals.wav

Peak level 97.7 % Track quality 100.0 % Test CRC 6F7119B3 Copy CRC 6F7119B3 Track not present in AccurateRip database Copy OK

Track 19

Filename 19 - Score - Kingdom Celebration.wav

Peak level 97.7 % Track quality 100.0 % Test CRC E3FB9732 Copy CRC E3FB9732 Track not present in AccurateRip database Copy OK

Track 20

Filename 20 - Grace Potter - Something That I Want.wav

Peak level 98.8 % Track quality 100.0 % Test CRC 8AA44E76 Copy CRC 8AA44E76 Track not present in AccurateRip database Copy OK

None of the tracks are present in the AccurateRip database

No errors occurred

End of status report
 
REM GENRE SoundtrackREM DATE 2010REM DISCID 010E1515REM COMMENT "ExactAudioCopy v0.99pb4"PERFORMER "Various"TITLE "Tangled (Soundtrack)"FILE "01 - Mandy Moore as 'Rapunzel' - When Will My Life Begin.wav" WAVE TRACK 01 AUDIO TITLE "When Will My Life Begin" PERFORMER "Mandy Moore as 'Rapunzel'" INDEX 01 00:00:00FILE "02 - Mandy Moore as 'Rapunzel' - When Will My Life Begin (Reprise 1).wav" WAVE TRACK 02 AUDIO TITLE "When Will My Life Begin (Reprise 1)" PERFORMER "Mandy Moore as 'Rapunzel'" INDEX 01 00:00:00FILE "03 - Donna Murphy as 'Mother Gothel' - Mother Knows Best.wav" WAVE TRACK 03 AUDIO TITLE "Mother Knows Best" PERFORMER "Donna Murphy as 'Mother Gothel'" INDEX 01 00:00:00FILE "04 - Mandy Moore as 'Rapunzel' - When Will My Life Begin (Reprise 2).wav" WAVE TRACK 04 AUDIO TITLE "When Will My Life Begin (Reprise 2)" PERFORMER "Mandy Moore as 'Rapunzel'" INDEX 01 00:00:00FILE "05 - Brad Garrett as 'Hook Hand Thug', Jeffrey Tambor as 'Big Nose Thug', Mandy Moore as 'Rapunzel', Zachary Levi as 'Flynn Rider' & The Thug Chorus - I've Got A Dream.wav" WAVE TRACK 05 AUDIO TITLE "I've Got A Dream" PERFORMER "Brad Garrett as 'Hook Hand Thug', Jeffrey Tambor as 'Big Nose Thug', Mandy Mo..." INDEX 01 00:00:00FILE "06 - Donna Murphy as 'Mother Gothel' - Mother Knows Best (Reprise).wav" WAVE TRACK 06 AUDIO TITLE "Mother Knows Best (Reprise)" PERFORMER "Donna Murphy as 'Mother Gothel'" INDEX 01 00:00:00FILE "07 - Mandy Moore as 'Rapunzel', Zachary Levi as 'Flynn Rider' - I See The Light.wav" WAVE TRACK 07 AUDIO TITLE "I See The Light" PERFORMER "Mandy Moore as 'Rapunzel', Zachary Levi as 'Flynn Rider'" INDEX 01 00:00:00FILE "08 - Mandy Moore as 'Rapunzel' - Healing Incantation.wav" WAVE TRACK 08 AUDIO TITLE "Healing Incantation" PERFORMER "Mandy Moore as 'Rapunzel'" INDEX 01 00:00:00FILE "09 - Score - Flynn Wanted.wav" WAVE TRACK 09 AUDIO TITLE "Flynn Wanted" PERFORMER "Score" INDEX 01 00:00:00FILE "10 - Donna Murphy as 'Mother Gothel', Delaney Stein as 'Young Rapunzel' - Prologue Songs And Score.wav" WAVE TRACK 10 AUDIO TITLE "Prologue Songs And Score" PERFORMER "Donna Murphy as 'Mother Gothel', Delaney Stein as 'Young Rapunzel'" INDEX 01 00:00:00FILE "11 - Score - Horse With No Rider.wav" WAVE TRACK 11 AUDIO TITLE "Horse With No Rider" PERFORMER "Score" INDEX 01 00:00:00FILE "12 - Score - Escape Route.wav" WAVE TRACK 12 AUDIO TITLE "Escape Route" PERFORMER "Score" INDEX 01 00:00:00FILE "13 - Score - Campfire.wav" WAVE TRACK 13 AUDIO TITLE "Campfire" PERFORMER "Score" INDEX 01 00:00:00FILE "14 - Score - Kingdom Dance.wav" WAVE TRACK 14 AUDIO TITLE "Kingdom Dance" PERFORMER "Score" INDEX 01 00:00:00FILE "15 - Score - Waiting For The Lights.wav" WAVE TRACK 15 AUDIO TITLE "Waiting For The Lights" PERFORMER "Score" INDEX 01 00:00:00FILE "16 - Score - Return To Mother.wav" WAVE TRACK 16 AUDIO TITLE "Return To Mother" PERFORMER "Score" INDEX 01 00:00:00FILE "17 - Score - Realization And Escape.wav" WAVE TRACK 17 AUDIO TITLE "Realization And Escape" PERFORMER "Score" INDEX 01 00:00:00FILE "18 - Mandy Moore as 'Rapunzel' - The Tear Heals.wav" WAVE TRACK 18 AUDIO TITLE "The Tear Heals" PERFORMER "Mandy Moore as 'Rapunzel'" INDEX 01 00:00:00FILE "19 - Score - Kingdom Celebration.wav" WAVE TRACK 19 AUDIO TITLE "Kingdom Celebration" PERFORMER "Score" INDEX 01 00:00:00FILE "20 - Grace Potter - Something That I Want.wav" WAVE TRACK 20 AUDIO TITLE "Something That I Want" PERFORMER "Grace Potter" INDEX 01 00:00:00



Трекер:  [ 19-Дек-2010 14:54 ]

  

Скачать .torrent

Размер .torrent файла 13 KB


Размер: 291 MB
Хэш (hash) релиза: 82f1e78d57717ae3158c1ec8fb8cc89631fd9fc8

Торренты, похожие на Рапунцель: Запутанная история Tangled скачать торрент

Форум Название Автор Размер S L Добавлен
Саундтреки к фильмам и мультфильмам (mp3) ·· (Soundtrack / Score) Рапунцель: Запутанная история / Tangled (by Alan Menken) - 2010, MP3, 320 kbps Mos 134016496128 MB 0 0 1291108250

12:10

30-Ноя-10

bot

Топик был перенесен в форум Саундтреки к фильмам и мультфильмам (lossless)

Перенес AqvaGen

Хотите добавить комментарий к записи скачать торрент Рапунцель: Запутанная история Tangled

!Обратная связь