Скачать через торрент музыку Скотт Пилигрим против всех Scott Pilgrim vs. The World - 2010, FLAC бесплатно без регистрации torrent

Статистика раздачи
Размер:  377 MB   |    Зарегистрирован:  7 лет 4 месяца   |    .torrent скачан:  50 раз   |   
Раздают:  1  
   
загрузка...
 
Автор Сообщение

AqvaGen


Скотт Пилигрим против всех / Scott Pilgrim vs. The World

Жанр: Soundtrack
Год выпуска диска: 2010
Страна-производитель диска: US
Издатель (лейбл): ABKCO

Аудио кодек: FLAC (*.flac)
Тип рипа: tracks+.cue
Битрейт аудио: lossless
Продолжительность: 57:08

Наличие сканов в содержимом раздачи: нет

Треклист:
01. Beck (as SEX BOB-OMB) – We Are SEX BOB-OMB
02. Plumtree – Scott Pilgrim
03. Frank Black – I Heard Ramona Sing
04. Beachwood Sparks – By Your Side
05. Black Lips – O Katrina!
06. Broken Social Scene (as Crash and the Boys) – I’m So Sad, So Very, Very Sad
07. Broken Social Scene (as Crash and the Boys) – We Hate You Please Die
08. Beck (as SEX BOB-OMB) – “Garbage Truck
09. T. Rex – Teenage Dream
10. The Bluetones – Sleazy Bed Track
11. Blood Red Shoes – It’s Getting Boring by the Sea
12. Metric – Black Sheep
13. Beck (as SEX BOB-OMB) – Threshold
14. Broken Social Scene – Anthems for a Seventeen-Year-Old Girl
15. The Rolling Stones – Under My Thumb
16. Beck – Ramona (Acoustic)
17. Beck – Ramona
18. Beck (as SEX BOB-OMB) – Summertime
19. Brian LeBarton: Threshold 8 Bit
 
Exact Audio Copy V0.99 prebeta 5 from 4. May 2009

EAC extraction logfile from 10. August 2010, 9:07

Various Artists / Scott Pilgrim vs. The World

Used drive : ATAPI DVD W DH16W1P Adapter: 3 ID: 0

Read mode : SecureUtilize accurate stream : YesDefeat audio cache : YesMake use of C2 pointers : No

Read offset correction : 6Overread into Lead-In and Lead-Out : NoFill up missing offset samples with silence : YesDelete leading and trailing silent blocks : NoNull samples used in CRC calculations : YesUsed interface : Native Win32 interface for Win NT & 2000Gap handling : Appended to previous track

Used output format : User Defined EncoderSelected bitrate : 128 kBit/sQuality : HighAdd ID3 tag : NoCommand line compressor : C:\Program Files (x86)\Exact Audio Copy\flac.exeAdditional command line options : -V -8 -T "artist=%a" -T "title=%t" -T "album=%g" -T "date=%y" -T "tracknumber=%n" -T "genre=%m" %s

TOC of the extracted CD

Track | Start | Length | Start sector | End sector --------------------------------------------------------- 1 | 0:00.00 | 2:01.36 | 0 | 9110 2 | 2:01.36 | 3:02.26 | 9111 | 22786 3 | 5:03.62 | 3:41.00 | 22787 | 39361 4 | 8:44.62 | 4:58.20 | 39362 | 61731 5 | 13:43.07 | 2:52.25 | 61732 | 74656 6 | 16:35.32 | 0:13.17 | 74657 | 75648 7 | 16:48.49 | 0:58.63 | 75649 | 80061 8 | 17:47.37 | 1:44.47 | 80062 | 87908 9 | 19:32.09 | 5:46.20 | 87909 | 113878 10 | 25:18.29 | 4:35.64 | 113879 | 134567 11 | 29:54.18 | 2:55.54 | 134568 | 147746 12 | 32:49.72 | 4:55.40 | 147747 | 169911 13 | 37:45.37 | 1:47.21 | 169912 | 177957 14 | 39:32.58 | 4:35.52 | 177958 | 198634 15 | 44:08.35 | 3:42.55 | 198635 | 215339 16 | 47:51.15 | 1:01.13 | 215340 | 219927 17 | 48:52.28 | 4:23.32 | 219928 | 239684 18 | 53:15.60 | 2:10.55 | 239685 | 249489 19 | 55:26.40 | 1:50.23 | 249490 | 257762

Track 1

Filename C:\EAC Rips\Various Artists - Scott Pilgrim vs. The World [2010] (FLAC)\01 We Are Sex Bob-omb.wav

Pre-gap length 0:00:02.00

Peak level 94.4 % Track quality 100.0 % Test CRC 072A7DB6 Copy CRC 072A7DB6 Track not present in AccurateRip database Copy OK

Track 2

Filename C:\EAC Rips\Various Artists - Scott Pilgrim vs. The World [2010] (FLAC)\02 Scott Pilgrim.wav

Pre-gap length 0:00:00.14

Peak level 99.4 % Track quality 100.0 % Test CRC EB297499 Copy CRC EB297499 Track not present in AccurateRip database Copy OK

Track 3

Filename C:\EAC Rips\Various Artists - Scott Pilgrim vs. The World [2010] (FLAC)\03 I Heard Ramona Sing.wav

Pre-gap length 0:00:00.36

Peak level 99.4 % Track quality 100.0 % Test CRC DE5F2E52 Copy CRC DE5F2E52 Track not present in AccurateRip database Copy OK

Track 4

Filename C:\EAC Rips\Various Artists - Scott Pilgrim vs. The World [2010] (FLAC)\04 By Your Side.wav

Pre-gap length 0:00:00.73

Peak level 100.0 % Track quality 100.0 % Test CRC 22D5ED07 Copy CRC 22D5ED07 Track not present in AccurateRip database Copy OK

Track 5

Filename C:\EAC Rips\Various Artists - Scott Pilgrim vs. The World [2010] (FLAC)\05 O Katrina!.wav

Pre-gap length 0:00:01.41

Peak level 92.7 % Track quality 99.9 % Test CRC 0975A637 Copy CRC 0975A637 Track not present in AccurateRip database Copy OK

Track 6

Filename C:\EAC Rips\Various Artists - Scott Pilgrim vs. The World [2010] (FLAC)\06 I'm So Sad, So Very, Very, Sad.wav

Pre-gap length 0:00:01.49

Peak level 97.8 % Track quality 100.0 % Test CRC 4479CA35 Copy CRC 4479CA35 Track not present in AccurateRip database Copy OK

Track 7

Filename C:\EAC Rips\Various Artists - Scott Pilgrim vs. The World [2010] (FLAC)\07 We Hate You Please Die.wav

Pre-gap length 0:00:00.24

Peak level 94.4 % Track quality 100.0 % Test CRC 9D0B5431 Copy CRC 9D0B5431 Track not present in AccurateRip database Copy OK

Track 8

Filename C:\EAC Rips\Various Artists - Scott Pilgrim vs. The World [2010] (FLAC)\08 Garbage Truck.wav

Peak level 100.0 % Track quality 100.0 % Test CRC 59C7FEF7 Copy CRC 59C7FEF7 Track not present in AccurateRip database Copy OK

Track 9

Filename C:\EAC Rips\Various Artists - Scott Pilgrim vs. The World [2010] (FLAC)\09 Teenage Dream.wav

Pre-gap length 0:00:00.74

Peak level 100.0 % Track quality 100.0 % Test CRC D6FA06ED Copy CRC D6FA06ED Track not present in AccurateRip database Copy OK

Track 10

Filename C:\EAC Rips\Various Artists - Scott Pilgrim vs. The World [2010] (FLAC)\10 Sleazy Bed Track.wav

Pre-gap length 0:00:00.65

Peak level 99.3 % Track quality 100.0 % Test CRC CB98143E Copy CRC CB98143E Track not present in AccurateRip database Copy OK

Track 11

Filename C:\EAC Rips\Various Artists - Scott Pilgrim vs. The World [2010] (FLAC)\11 It's Getting Boring by the Sea.wav

Peak level 94.3 % Track quality 100.0 % Test CRC 9A166D0E Copy CRC 9A166D0E Track not present in AccurateRip database Copy OK

Track 12

Filename C:\EAC Rips\Various Artists - Scott Pilgrim vs. The World [2010] (FLAC)\12 Black Sheep.wav

Peak level 99.8 % Track quality 99.9 % Test CRC 47B7A11F Copy CRC 47B7A11F Track not present in AccurateRip database Copy OK

Track 13

Filename C:\EAC Rips\Various Artists - Scott Pilgrim vs. The World [2010] (FLAC)\13 Threshold.wav

Peak level 100.0 % Track quality 100.0 % Test CRC 73F94A28 Copy CRC 73F94A28 Track not present in AccurateRip database Copy OK

Track 14

Filename C:\EAC Rips\Various Artists - Scott Pilgrim vs. The World [2010] (FLAC)\14 Anthems for a Seventeen Year Old Girl.wav

Peak level 99.4 % Track quality 100.0 % Test CRC D93AFDD4 Copy CRC D93AFDD4 Track not present in AccurateRip database Copy OK

Track 15

Filename C:\EAC Rips\Various Artists - Scott Pilgrim vs. The World [2010] (FLAC)\15 Under My Thumb.wav

Peak level 99.4 % Track quality 100.0 % Test CRC 4DE7D0FD Copy CRC 4DE7D0FD Track not present in AccurateRip database Copy OK

Track 16

Filename C:\EAC Rips\Various Artists - Scott Pilgrim vs. The World [2010] (FLAC)\16 Ramona (Acoustic Version).wav

Pre-gap length 0:00:01.16

Peak level 84.2 % Track quality 100.0 % Test CRC D503DA38 Copy CRC D503DA38 Track not present in AccurateRip database Copy OK

Track 17

Filename C:\EAC Rips\Various Artists - Scott Pilgrim vs. The World [2010] (FLAC)\17 Ramona.wav

Pre-gap length 0:00:00.74

Peak level 98.8 % Track quality 100.0 % Test CRC 068621D2 Copy CRC 068621D2 Track not present in AccurateRip database Copy OK

Track 18

Filename C:\EAC Rips\Various Artists - Scott Pilgrim vs. The World [2010] (FLAC)\18 Summertime.wav

Pre-gap length 0:00:01.92

Peak level 94.4 % Track quality 100.0 % Test CRC 5030BF3A Copy CRC 5030BF3A Track not present in AccurateRip database Copy OK

Track 19

Filename C:\EAC Rips\Various Artists - Scott Pilgrim vs. The World [2010] (FLAC)\19 Threshold (8 bit).wav

Pre-gap length 0:00:00.89

Peak level 66.5 % Track quality 100.0 % Test CRC 53BEAF79 Copy CRC 53BEAF79 Track not present in AccurateRip database Copy OK

None of the tracks are present in the AccurateRip database

No errors occurred

End of status report
 
REM DISCID 0E0D6C13REM COMMENT "ExactAudioCopy v0.99pb5"FILE "01 We Are Sex Bob-omb.wav" WAVE TRACK 01 AUDIO INDEX 01 00:00:00 TRACK 02 AUDIO INDEX 00 02:01:25FILE "02 Scott Pilgrim" WAVE INDEX 01 00:00:00 TRACK 03 AUDIO INDEX 00 03:01:74FILE "03 I Heard Ramona Sing" WAVE INDEX 01 00:00:00 TRACK 04 AUDIO INDEX 00 03:40:20FILE "04 By Your Side" WAVE INDEX 01 00:00:00 TRACK 05 AUDIO INDEX 00 04:56:64FILE "05 O Katrina!" WAVE INDEX 01 00:00:00 TRACK 06 AUDIO INDEX 00 02:50:63FILE "06 I'm So Sad, So Very, Very, Sad" WAVE INDEX 01 00:00:00 TRACK 07 AUDIO INDEX 00 00:12:74FILE "07 We Hate You Please Die" WAVE INDEX 01 00:00:00FILE "08 Garbage Truck" WAVE TRACK 08 AUDIO INDEX 01 00:00:00 TRACK 09 AUDIO INDEX 00 01:43:66FILE "09 Teenage Dream" WAVE INDEX 01 00:00:00 TRACK 10 AUDIO INDEX 00 05:45:46FILE "10 Sleazy Bed Track" WAVE INDEX 01 00:00:00FILE "11 It's Getting Boring by the Sea" WAVE TRACK 11 AUDIO INDEX 01 00:00:00FILE "12 Black Sheep" WAVE TRACK 12 AUDIO INDEX 01 00:00:00FILE "13 Threshold" WAVE TRACK 13 AUDIO INDEX 01 00:00:00FILE "14 Anthems for a Seventeen Year Old Girl" WAVE TRACK 14 AUDIO INDEX 01 00:00:00FILE "15 Under My Thumb" WAVE TRACK 15 AUDIO INDEX 01 00:00:00 TRACK 16 AUDIO INDEX 00 03:41:43FILE "16 Ramona (Acoustic Version)" WAVE INDEX 01 00:00:00 TRACK 17 AUDIO INDEX 00 01:00:32FILE "17 Ramona" WAVE INDEX 01 00:00:00 TRACK 18 AUDIO INDEX 00 04:21:38FILE "18 Summertime" WAVE INDEX 01 00:00:00 TRACK 19 AUDIO INDEX 00 02:09:63FILE "19 Threshold (8 bit)" WAVE INDEX 01 00:00:00


Трекер:  [ 20-Дек-2010 16:26 ]

  

Скачать .torrent

Размер .torrent файла 16 KB


Размер: 377 MB
Хэш (hash) релиза: c20fa54cf7dc792a1c32c0c298d130a9afda3ba0

Торренты, похожие на Скотт Пилигрим против всех Scott Pilgrim vs. The World - 2010, FLAC скачать торрент

Форум Название Автор Размер S L Добавлен
Саундтреки к фильмам и мультфильмам (lossless) ·· (Soundtrack) [LP] [24/96] Скотт Пилигрим против всех / Scott Pilgrim vs. The World - 2010, FLAC (tracks), lossless AqvaGen 14283705921.33 GB 0 0 1292268447

22:27

13-Дек-10

bot

Топик был перенесен в форум Саундтреки к фильмам и мультфильмам (lossless)

Перенес AqvaGen

Хотите добавить комментарий к записи скачать торрент Скотт Пилигрим против всех Scott Pilgrim vs. The World - 2010, FLAC

!Обратная связь