Скачать через торрент музыку Гладиатор Gladiator бесплатно без регистрации torrent

Статистика раздачи
Размер:  607 MB   |    Зарегистрирован:  7 лет 7 месяцев   |    .torrent скачан:  137 раз   |   
Раздают:  1  
   
загрузка...
 
Автор Сообщение

AqvaGen


Гладиатор / Gladiator [Special Anniversary Edition]

Жанр: Score || Композитор: Hans Zimmer & Lisa Gerrard || Год выпуска: 2005 || Страна: USA || Аудио кодек: FLAC || Тип рипа: tracks+.cue || Битрейт аудио: lossless
Продолжительность: 01:01:38+00:55:35

Disc 1:
01 - Progeny (02:14)
02 - The Wheat (01:03)
03 - The Battle (10:02)
04 - Earth (03:02)
05 - Sorrow (01:26)
06 - To Zucchabar (03:16)
07 - Patricide (04:08)
08 - The Emperor Is Dead (01:22)
09 - The Might of Rome (05:18)
10 - Strength and Honor (02:10)
11 - Reunion (01:14)
12 - Slaves to Rome (01:00)
13 - Barbarian Horde (10:33)
14 - Am I Not Merciful? (06:33)
15 - Elysium (02:41)
16 - Honor Him (01:20)
17 - Now We Are Free (04:14)

Disc 2:
01 - Duduk of the North (05:33)
02 - Now We Are Free (Juba's mix) (04:47)
03 - The Protector of Rome (01:26)
04 - Homecoming (03:36)
05 - The General Who Became a Slave (03:03)
06 - The Slave Who Became a Gladiator (06:12)
07 - Secrets (01:59)
08 - Rome Is the Light (02:44)
09 - All That Remains (00:55)
10 - Maximus (01:09)
11 - Marrakesh Marketplace (00:42)
12 - The Gladiator Waltz (08:25)
13 - Figurines (01:02)
14 - The Mob (02:23)
15 - Busy Little Bee (03:48)
16 - Death Smiles at Us All (02:29)
17 - Not Yet (01:33)
18 - Now We Are Free (Maximus Mix) (03:50)

 
X Lossless Decoder version 20100412 (117.3)

XLD extraction logfile from 2010-04-17 02:56:39 +0100

Hans Zimmer and Lisa Gerrard / Gladiator - Music from the Motion Picture, Special Anniversary Edition

Used drive : OPTIARC DVD RW AD-7170A (revision 1.NC)

Use cdparanoia mode : YES (CDParanoia III 10.2 engine)Disable audio cache : OK for the drive with cache less than 2750KBMake use of C2 pointers : NORead offset correction : 48Max retry count : 100

TOC of the extracted CD Track | Start | Length | Start sector | End sector --------------------------------------------------------- 1 | 00:00:00 | 02:13:45 | 0 | 10019 2 | 02:13:45 | 01:03:20 | 10020 | 14764 3 | 03:16:65 | 10:02:17 | 14765 | 59931 4 | 13:19:07 | 03:01:65 | 59932 | 73571 5 | 16:20:72 | 01:26:23 | 73572 | 80044 6 | 17:47:20 | 03:16:07 | 80045 | 94751 7 | 21:03:27 | 04:08:05 | 94752 | 113356 8 | 25:11:32 | 01:21:53 | 113357 | 119484 9 | 26:33:10 | 05:18:32 | 119485 | 143366 10 | 31:51:42 | 02:09:68 | 143367 | 153109 11 | 34:01:35 | 01:14:10 | 153110 | 158669 12 | 35:15:45 | 01:00:37 | 158670 | 163206 13 | 36:16:07 | 10:33:08 | 163207 | 210689 14 | 46:49:15 | 06:33:35 | 210690 | 240199 15 | 53:22:50 | 02:41:37 | 240200 | 252311 16 | 56:04:12 | 01:19:63 | 252312 | 258299 17 | 57:24:00 | 04:14:22 | 258300 | 277371

List of alternate offset correction values # | Absolute | Relative | Confidence ------------------------------------------ 1 | 712 | 664 | 180 2 | 30 | -18 | 17 3 | 184 | 136 | 6 4 | -1280 | -1328 | 5 5 | -616 | -664 | 4 6 | 42 | -6 | 2 7 | 677 | 629 | 2 8 | -622 | -670 | 2 9 | 54 | 6 | 2 10 | 694 | 646 | 2 11 | -1848 | -1896 | 2

All Tracks Album gain : -4.31 dB Peak : 0.998901

Track 01 Filename : /Volumes/Media/Torrents/Music Uploads/Hans Zimmer and Lisa Gerrard - Gladiator Anniversary Edition/Hans Zimmer and Lisa Gerrard - Gladiator Anniversary Edition (2005 FLAC)/0101 - Progeny.flac

Pre-gap length : 00:02:00

Track gain : 10.56 dB Peak : 0.285461 CRC32 hash (test run) : 2DBC1C4F CRC32 hash : 2DBC1C4F CRC32 hash (skip zero) : 345A6E03 AccurateRip signature : 56FFE346 ->Accurately ripped! (confidence 67) Statistics Read error : 0 Skipped (treated as error) : 0 Edge jitter error (maybe fixed) : 0 Atom jitter error (maybe fixed) : 0 Drift error (maybe fixed) : 0 Dropped bytes error (maybe fixed) : 0 Duplicated bytes error (maybe fixed) : 0 Inconsistency in error sectors : 0

Track 02 Filename : /Volumes/Media/Torrents/Music Uploads/Hans Zimmer and Lisa Gerrard - Gladiator Anniversary Edition/Hans Zimmer and Lisa Gerrard - Gladiator Anniversary Edition (2005 FLAC)/0102 - The Wheat.flac

Track gain : 6.83 dB Peak : 0.409210 CRC32 hash (test run) : C51AF42F CRC32 hash : C51AF42F CRC32 hash (skip zero) : 0727F8F0 AccurateRip signature : 27901B8E ->Accurately ripped! (confidence 66) Statistics Read error : 0 Skipped (treated as error) : 0 Edge jitter error (maybe fixed) : 0 Atom jitter error (maybe fixed) : 0 Drift error (maybe fixed) : 0 Dropped bytes error (maybe fixed) : 0 Duplicated bytes error (maybe fixed) : 0 Inconsistency in error sectors : 0

Track 03 Filename : /Volumes/Media/Torrents/Music Uploads/Hans Zimmer and Lisa Gerrard - Gladiator Anniversary Edition/Hans Zimmer and Lisa Gerrard - Gladiator Anniversary Edition (2005 FLAC)/0103 - The Battle.flac

Track gain : -5.45 dB Peak : 0.998901 CRC32 hash (test run) : 6F76E6F6 CRC32 hash : 6F76E6F6 CRC32 hash (skip zero) : E242A08C AccurateRip signature : D602D337 ->Accurately ripped! (confidence 66) Statistics Read error : 0 Skipped (treated as error) : 0 Edge jitter error (maybe fixed) : 0 Atom jitter error (maybe fixed) : 0 Drift error (maybe fixed) : 0 Dropped bytes error (maybe fixed) : 0 Duplicated bytes error (maybe fixed) : 0 Inconsistency in error sectors : 0

Track 04 Filename : /Volumes/Media/Torrents/Music Uploads/Hans Zimmer and Lisa Gerrard - Gladiator Anniversary Edition/Hans Zimmer and Lisa Gerrard - Gladiator Anniversary Edition (2005 FLAC)/0104 - Earth.flac

Track gain : 8.04 dB Peak : 0.343292 CRC32 hash (test run) : 3E22EC53 CRC32 hash : 3E22EC53 CRC32 hash (skip zero) : C980A3EE AccurateRip signature : 7F6789AC ->Accurately ripped! (confidence 66) Statistics Read error : 0 Skipped (treated as error) : 0 Edge jitter error (maybe fixed) : 0 Atom jitter error (maybe fixed) : 0 Drift error (maybe fixed) : 0 Dropped bytes error (maybe fixed) : 0 Duplicated bytes error (maybe fixed) : 0 Inconsistency in error sectors : 0

Track 05 Filename : /Volumes/Media/Torrents/Music Uploads/Hans Zimmer and Lisa Gerrard - Gladiator Anniversary Edition/Hans Zimmer and Lisa Gerrard - Gladiator Anniversary Edition (2005 FLAC)/0105 - Sorrow.flac

Track gain : 2.16 dB Peak : 0.495178 CRC32 hash (test run) : 25BAA25B CRC32 hash : 25BAA25B CRC32 hash (skip zero) : E6856016 AccurateRip signature : 85DFA620 ->Accurately ripped! (confidence 66) Statistics Read error : 0 Skipped (treated as error) : 0 Edge jitter error (maybe fixed) : 0 Atom jitter error (maybe fixed) : 0 Drift error (maybe fixed) : 0 Dropped bytes error (maybe fixed) : 0 Duplicated bytes error (maybe fixed) : 0 Inconsistency in error sectors : 0

Track 06 Filename : /Volumes/Media/Torrents/Music Uploads/Hans Zimmer and Lisa Gerrard - Gladiator Anniversary Edition/Hans Zimmer and Lisa Gerrard - Gladiator Anniversary Edition (2005 FLAC)/0106 - To Zucchabar.flac

Track gain : 5.66 dB Peak : 0.710663 CRC32 hash (test run) : D01A8131 CRC32 hash : D01A8131 CRC32 hash (skip zero) : 850906E2 AccurateRip signature : C45DC7EF ->Accurately ripped! (confidence 66) Statistics Read error : 0 Skipped (treated as error) : 0 Edge jitter error (maybe fixed) : 0 Atom jitter error (maybe fixed) : 0 Drift error (maybe fixed) : 0 Dropped bytes error (maybe fixed) : 0 Duplicated bytes error (maybe fixed) : 0 Inconsistency in error sectors : 0

Track 07 Filename : /Volumes/Media/Torrents/Music Uploads/Hans Zimmer and Lisa Gerrard - Gladiator Anniversary Edition/Hans Zimmer and Lisa Gerrard - Gladiator Anniversary Edition (2005 FLAC)/0107 - Patricide.flac

Track gain : -1.20 dB Peak : 0.836823 CRC32 hash (test run) : 55B096A4 CRC32 hash : 55B096A4 CRC32 hash (skip zero) : 80EE9EF6 AccurateRip signature : 1AB00B85 ->Accurately ripped! (confidence 66) Statistics Read error : 0 Skipped (treated as error) : 0 Edge jitter error (maybe fixed) : 0 Atom jitter error (maybe fixed) : 0 Drift error (maybe fixed) : 0 Dropped bytes error (maybe fixed) : 0 Duplicated bytes error (maybe fixed) : 0 Inconsistency in error sectors : 0

Track 08 Filename : /Volumes/Media/Torrents/Music Uploads/Hans Zimmer and Lisa Gerrard - Gladiator Anniversary Edition/Hans Zimmer and Lisa Gerrard - Gladiator Anniversary Edition (2005 FLAC)/0108 - The Emperor Is Dead.flac

Track gain : 7.67 dB Peak : 0.210480 CRC32 hash (test run) : 0431D030 CRC32 hash : 0431D030 CRC32 hash (skip zero) : AC5F5FF5 AccurateRip signature : 5BF5CEC7 ->Accurately ripped! (confidence 66) Statistics Read error : 0 Skipped (treated as error) : 0 Edge jitter error (maybe fixed) : 0 Atom jitter error (maybe fixed) : 0 Drift error (maybe fixed) : 0 Dropped bytes error (maybe fixed) : 0 Duplicated bytes error (maybe fixed) : 0 Inconsistency in error sectors : 0

Track 09 Filename : /Volumes/Media/Torrents/Music Uploads/Hans Zimmer and Lisa Gerrard - Gladiator Anniversary Edition/Hans Zimmer and Lisa Gerrard - Gladiator Anniversary Edition (2005 FLAC)/0109 - The Might of Rome.flac

Track gain : -3.00 dB Peak : 0.998901 CRC32 hash (test run) : A010409A CRC32 hash : A010409A CRC32 hash (skip zero) : C5D3B059 AccurateRip signature : 0D306573 ->Accurately ripped! (confidence 66) Statistics Read error : 0 Skipped (treated as error) : 0 Edge jitter error (maybe fixed) : 0 Atom jitter error (maybe fixed) : 0 Drift error (maybe fixed) : 0 Dropped bytes error (maybe fixed) : 0 Duplicated bytes error (maybe fixed) : 0 Inconsistency in error sectors : 0

Track 10 Filename : /Volumes/Media/Torrents/Music Uploads/Hans Zimmer and Lisa Gerrard - Gladiator Anniversary Edition/Hans Zimmer and Lisa Gerrard - Gladiator Anniversary Edition (2005 FLAC)/0110 - Strength and Honor.flac

Track gain : 5.57 dB Peak : 0.337311 CRC32 hash (test run) : 7C74E8FB CRC32 hash : 7C74E8FB CRC32 hash (skip zero) : 1D236851 AccurateRip signature : 2C3F73F5 ->Accurately ripped! (confidence 66) Statistics Read error : 0 Skipped (treated as error) : 0 Edge jitter error (maybe fixed) : 0 Atom jitter error (maybe fixed) : 0 Drift error (maybe fixed) : 0 Dropped bytes error (maybe fixed) : 0 Duplicated bytes error (maybe fixed) : 0 Inconsistency in error sectors : 0

Track 11 Filename : /Volumes/Media/Torrents/Music Uploads/Hans Zimmer and Lisa Gerrard - Gladiator Anniversary Edition/Hans Zimmer and Lisa Gerrard - Gladiator Anniversary Edition (2005 FLAC)/0111 - Reunion.flac

Track gain : -1.00 dB Peak : 0.882996 CRC32 hash (test run) : F43C8D04 CRC32 hash : F43C8D04 CRC32 hash (skip zero) : F6339493 AccurateRip signature : 8C8CB8F6 ->Accurately ripped! (confidence 66) Statistics Read error : 0 Skipped (treated as error) : 0 Edge jitter error (maybe fixed) : 0 Atom jitter error (maybe fixed) : 0 Drift error (maybe fixed) : 0 Dropped bytes error (maybe fixed) : 0 Duplicated bytes error (maybe fixed) : 0 Inconsistency in error sectors : 0

Track 12 Filename : /Volumes/Media/Torrents/Music Uploads/Hans Zimmer and Lisa Gerrard - Gladiator Anniversary Edition/Hans Zimmer and Lisa Gerrard - Gladiator Anniversary Edition (2005 FLAC)/0112 - Slaves to Rome.flac

Track gain : -4.96 dB Peak : 0.998901 CRC32 hash (test run) : 2E7D23B8 CRC32 hash : 2E7D23B8 CRC32 hash (skip zero) : B280A809 AccurateRip signature : D37A5A44 ->Accurately ripped! (confidence 66) Statistics Read error : 0 Skipped (treated as error) : 0 Edge jitter error (maybe fixed) : 0 Atom jitter error (maybe fixed) : 0 Drift error (maybe fixed) : 0 Dropped bytes error (maybe fixed) : 0 Duplicated bytes error (maybe fixed) : 0 Inconsistency in error sectors : 0

Track 13 Filename : /Volumes/Media/Torrents/Music Uploads/Hans Zimmer and Lisa Gerrard - Gladiator Anniversary Edition/Hans Zimmer and Lisa Gerrard - Gladiator Anniversary Edition (2005 FLAC)/0113 - Barbarian Horde.flac

Track gain : -6.23 dB Peak : 0.998901 CRC32 hash (test run) : 0B69A50A CRC32 hash : 0B69A50A CRC32 hash (skip zero) : EF82F687 AccurateRip signature : 3DBA45F1 ->Accurately ripped! (confidence 66) Statistics Read error : 0 Skipped (treated as error) : 0 Edge jitter error (maybe fixed) : 0 Atom jitter error (maybe fixed) : 0 Drift error (maybe fixed) : 0 Dropped bytes error (maybe fixed) : 0 Duplicated bytes error (maybe fixed) : 0 Inconsistency in error sectors : 0

Track 14 Filename : /Volumes/Media/Torrents/Music Uploads/Hans Zimmer and Lisa Gerrard - Gladiator Anniversary Edition/Hans Zimmer and Lisa Gerrard - Gladiator Anniversary Edition (2005 FLAC)/0114 - Am I Not Merciful_.flac

Track gain : -5.60 dB Peak : 0.998901 CRC32 hash (test run) : 9F1E3659 CRC32 hash : 9F1E3659 CRC32 hash (skip zero) : FFC71083 AccurateRip signature : 1BB52A4F ->Accurately ripped! (confidence 65) Statistics Read error : 0 Skipped (treated as error) : 0 Edge jitter error (maybe fixed) : 0 Atom jitter error (maybe fixed) : 0 Drift error (maybe fixed) : 0 Dropped bytes error (maybe fixed) : 0 Duplicated bytes error (maybe fixed) : 0 Inconsistency in error sectors : 0

Track 15 Filename : /Volumes/Media/Torrents/Music Uploads/Hans Zimmer and Lisa Gerrard - Gladiator Anniversary Edition/Hans Zimmer and Lisa Gerrard - Gladiator Anniversary Edition (2005 FLAC)/0115 - Elysium.flac

Track gain : 2.92 dB Peak : 0.473755 CRC32 hash (test run) : 6F147F60 CRC32 hash : 6F147F60 CRC32 hash (skip zero) : 6837D384 AccurateRip signature : B89CBF81 ->Accurately ripped! (confidence 66) Statistics Read error : 0 Skipped (treated as error) : 0 Edge jitter error (maybe fixed) : 0 Atom jitter error (maybe fixed) : 0 Drift error (maybe fixed) : 0 Dropped bytes error (maybe fixed) : 0 Duplicated bytes error (maybe fixed) : 0 Inconsistency in error sectors : 0

Track 16 Filename : /Volumes/Media/Torrents/Music Uploads/Hans Zimmer and Lisa Gerrard - Gladiator Anniversary Edition/Hans Zimmer and Lisa Gerrard - Gladiator Anniversary Edition (2005 FLAC)/0116 - Honor Him.flac

Track gain : -1.77 dB Peak : 0.961395 CRC32 hash (test run) : B23797AF CRC32 hash : B23797AF CRC32 hash (skip zero) : F28150BC AccurateRip signature : BD791E95 ->Accurately ripped! (confidence 65) Statistics Read error : 0 Skipped (treated as error) : 0 Edge jitter error (maybe fixed) : 0 Atom jitter error (maybe fixed) : 0 Drift error (maybe fixed) : 0 Dropped bytes error (maybe fixed) : 0 Duplicated bytes error (maybe fixed) : 0 Inconsistency in error sectors : 0

Track 17 Filename : /Volumes/Media/Torrents/Music Uploads/Hans Zimmer and Lisa Gerrard - Gladiator Anniversary Edition/Hans Zimmer and Lisa Gerrard - Gladiator Anniversary Edition (2005 FLAC)/0117 - Now We Are Free.flac

Track gain : -0.82 dB Peak : 0.998871 CRC32 hash (test run) : 3FAB273A CRC32 hash : 3FAB273A CRC32 hash (skip zero) : F60409FE AccurateRip signature : C60D8FF7 ->Accurately ripped! (confidence 64) Statistics Read error : 0 Skipped (treated as error) : 0 Edge jitter error (maybe fixed) : 0 Atom jitter error (maybe fixed) : 0 Drift error (maybe fixed) : 0 Dropped bytes error (maybe fixed) : 0 Duplicated bytes error (maybe fixed) : 0 Inconsistency in error sectors : 0

No errors occurred

End of status report
 
TITLE "Gladiator - Music from the Motion Picture, Special Anniversary Edition"PERFORMER "Hans Zimmer and Lisa Gerrard"CATALOG 0028946709429REM GENRE "Soundtrack"REM DATE "2000-04-25"FILE "0101 - Progeny.wav" WAVE TRACK 01 AUDIO TITLE "Progeny" PERFORMER "Hans Zimmer and Lisa Gerrard" SONGWRITER "Hans Zimmer" ISRC USUMC0000053 INDEX 01 00:00:00FILE "0102 - The Wheat.wav" WAVE TRACK 02 AUDIO TITLE "The Wheat" PERFORMER "Hans Zimmer and Lisa Gerrard" SONGWRITER "Hans Zimmer" ISRC USUMC0000054 INDEX 01 00:00:00FILE "0103 - The Battle.wav" WAVE TRACK 03 AUDIO TITLE "The Battle" PERFORMER "Hans Zimmer and Lisa Gerrard" SONGWRITER "Hans Zimmer" ISRC USUMC0000066 INDEX 01 00:00:00FILE "0104 - Earth.wav" WAVE TRACK 04 AUDIO TITLE "Earth" PERFORMER "Hans Zimmer and Lisa Gerrard" SONGWRITER "Hans Zimmer" ISRC USUMC0000050 INDEX 01 00:00:00FILE "0105 - Sorrow.wav" WAVE TRACK 05 AUDIO TITLE "Sorrow" PERFORMER "Hans Zimmer and Lisa Gerrard" SONGWRITER "Hans Zimmer" ISRC USUMC0000055 INDEX 01 00:00:00FILE "0106 - To Zucchabar.wav" WAVE TRACK 06 AUDIO TITLE "To Zucchabar" PERFORMER "Hans Zimmer and Lisa Gerrard" SONGWRITER "Hans Zimmer" ISRC USUMC0000056 INDEX 01 00:00:00FILE "0107 - Patricide.wav" WAVE TRACK 07 AUDIO TITLE "Patricide" PERFORMER "Hans Zimmer and Lisa Gerrard" SONGWRITER "Hans Zimmer" ISRC USUMC0000068 INDEX 01 00:00:00FILE "0108 - The Emperor Is Dead.wav" WAVE TRACK 08 AUDIO TITLE "The Emperor Is Dead" PERFORMER "Hans Zimmer and Lisa Gerrard" SONGWRITER "Hans Zimmer" ISRC USUMC0000057 INDEX 01 00:00:00FILE "0109 - The Might of Rome.wav" WAVE TRACK 09 AUDIO TITLE "The Might of Rome" PERFORMER "Hans Zimmer and Lisa Gerrard" SONGWRITER "Hans Zimmer" ISRC USUMC0000058 INDEX 01 00:00:00FILE "0110 - Strength and Honor.wav" WAVE TRACK 10 AUDIO TITLE "Strength and Honor" PERFORMER "Hans Zimmer and Lisa Gerrard" SONGWRITER "Hans Zimmer" ISRC USUMC0000059 INDEX 01 00:00:00FILE "0111 - Reunion.wav" WAVE TRACK 11 AUDIO TITLE "Reunion" PERFORMER "Hans Zimmer and Lisa Gerrard" SONGWRITER "Hans Zimmer" ISRC USUMC0000060 INDEX 01 00:00:00FILE "0112 - Slaves to Rome.wav" WAVE TRACK 12 AUDIO TITLE "Slaves to Rome" PERFORMER "Hans Zimmer and Lisa Gerrard" SONGWRITER "Hans Zimmer" ISRC USUMC0000061 INDEX 01 00:00:00FILE "0113 - Barbarian Horde.wav" WAVE TRACK 13 AUDIO TITLE "Barbarian Horde" PERFORMER "Hans Zimmer and Lisa Gerrard" SONGWRITER "Hans Zimmer" ISRC USUMC0000051 INDEX 01 00:00:00FILE "0114 - Am I Not Merciful.wav" WAVE TRACK 14 AUDIO TITLE "Am I Not Merciful?" PERFORMER "Hans Zimmer and Lisa Gerrard" SONGWRITER "Hans Zimmer" ISRC USUMC0000069 INDEX 01 00:00:00FILE "0115 - Elysium.wav" WAVE TRACK 15 AUDIO TITLE "Elysium" PERFORMER "Hans Zimmer and Lisa Gerrard" SONGWRITER "Hans Zimmer" ISRC USUMC0000067 INDEX 01 00:00:00FILE "0116 - Honor Him.wav" WAVE TRACK 16 AUDIO TITLE "Honor Him" PERFORMER "Hans Zimmer and Lisa Gerrard" SONGWRITER "Hans Zimmer" ISRC USUMC0000052 INDEX 01 00:00:00FILE "0117 - Now We Are Free.wav" WAVE TRACK 17 AUDIO TITLE "Now We Are Free" PERFORMER "Hans Zimmer and Lisa Gerrard" SONGWRITER "Hans Zimmer" ISRC USUMC0000062 INDEX 01 00:00:00
 
X Lossless Decoder version 20100417 (117.4)

XLD extraction logfile from 2010-04-17 15:27:54 +0100

Hans Zimmer and Lisa Gerrard / Gladiator - Music from the Motion Picture, Special Anniversary Edition

Used drive : MATSHITA DVD-R UJ-868 (revision KB19)

Use cdparanoia mode : YES (CDParanoia III 10.2 engine)Disable audio cache : OK for the drive with cache less than 2750KBMake use of C2 pointers : NORead offset correction : 102Max retry count : 100

TOC of the extracted CD Track | Start | Length | Start sector | End sector --------------------------------------------------------- 1 | 00:00:00 | 05:33:25 | 0 | 24999 2 | 05:33:25 | 04:47:37 | 25000 | 46561 3 | 10:20:62 | 01:25:45 | 46562 | 52981 4 | 11:46:32 | 03:35:73 | 52982 | 69179 5 | 15:22:30 | 03:03:22 | 69180 | 82926 6 | 18:25:52 | 06:11:53 | 82927 | 110804 7 | 24:37:30 | 01:59:22 | 110805 | 119751 8 | 26:36:52 | 02:43:53 | 119752 | 132029 9 | 29:20:30 | 00:54:62 | 132030 | 136141 10 | 30:15:17 | 01:09:00 | 136142 | 141316 11 | 31:24:17 | 00:42:15 | 141317 | 144481 12 | 32:06:32 | 08:25:15 | 144482 | 182371 13 | 40:31:47 | 01:01:60 | 182372 | 187006 14 | 41:33:32 | 02:22:58 | 187007 | 197714 15 | 43:56:15 | 03:47:60 | 197715 | 214799 16 | 47:44:00 | 02:29:37 | 214800 | 226011 17 | 50:13:37 | 01:32:68 | 226012 | 232979 18 | 51:46:30 | 03:49:42 | 232980 | 250196 19 | 58:07:72 | 02:36:59 | 261597 | 273355

List of alternate offset correction values # | Absolute | Relative | Confidence ------------------------------------------ 1 | 766 | 664 | 36 2 | -562 | -664 | 6 3 | -580 | -682 | 4 4 | 707 | 605 | 2 5 | -492 | -594 | 2

All Tracks Album gain : -2.82 dB Peak : 0.974884

Track 01 Filename : /Volumes/Media/Torrents/Music Uploads/Hans Zimmer and Lisa Gerrard - Gladiator Anniversary Edition/Hans Zimmer and Lisa Gerrard - Gladiator Anniversary Edition (2005 FLAC)/0201 - Duduk of the North.flac

Pre-gap length : 00:02:00

Track gain : -3.01 dB Peak : 0.961243 CRC32 hash (test run) : 88732EA2 CRC32 hash : 88732EA2 CRC32 hash (skip zero) : EFD97F68 AccurateRip signature : 9DC08A37 ->Accurately ripped! (confidence 27) Statistics Read error : 0 Skipped (treated as error) : 0 Edge jitter error (maybe fixed) : 0 Atom jitter error (maybe fixed) : 0 Drift error (maybe fixed) : 0 Dropped bytes error (maybe fixed) : 0 Duplicated bytes error (maybe fixed) : 0 Inconsistency in error sectors : 0

Track 02 Filename : /Volumes/Media/Torrents/Music Uploads/Hans Zimmer and Lisa Gerrard - Gladiator Anniversary Edition/Hans Zimmer and Lisa Gerrard - Gladiator Anniversary Edition (2005 FLAC)/0202 - Now We Are Free (Juba's mix).flac

Track gain : -2.68 dB Peak : 0.959442 CRC32 hash (test run) : 7A70B53C CRC32 hash : 7A70B53C CRC32 hash (skip zero) : B2628E57 AccurateRip signature : 2605AF5E ->Accurately ripped! (confidence 27) Statistics Read error : 0 Skipped (treated as error) : 0 Edge jitter error (maybe fixed) : 0 Atom jitter error (maybe fixed) : 0 Drift error (maybe fixed) : 0 Dropped bytes error (maybe fixed) : 0 Duplicated bytes error (maybe fixed) : 0 Inconsistency in error sectors : 0

Track 03 Filename : /Volumes/Media/Torrents/Music Uploads/Hans Zimmer and Lisa Gerrard - Gladiator Anniversary Edition/Hans Zimmer and Lisa Gerrard - Gladiator Anniversary Edition (2005 FLAC)/0203 - The Protector of Rome.flac

Track gain : 4.92 dB Peak : 0.743347 CRC32 hash (test run) : 02D6159B CRC32 hash : 02D6159B CRC32 hash (skip zero) : 0CED73A5 AccurateRip signature : 1466B827 ->Accurately ripped! (confidence 27) Statistics Read error : 0 Skipped (treated as error) : 0 Edge jitter error (maybe fixed) : 0 Atom jitter error (maybe fixed) : 0 Drift error (maybe fixed) : 0 Dropped bytes error (maybe fixed) : 0 Duplicated bytes error (maybe fixed) : 0 Inconsistency in error sectors : 0

Track 04 Filename : /Volumes/Media/Torrents/Music Uploads/Hans Zimmer and Lisa Gerrard - Gladiator Anniversary Edition/Hans Zimmer and Lisa Gerrard - Gladiator Anniversary Edition (2005 FLAC)/0204 - Homecoming.flac

Track gain : -1.82 dB Peak : 0.971680 CRC32 hash (test run) : 79284C6F CRC32 hash : 79284C6F CRC32 hash (skip zero) : 41AD367A AccurateRip signature : C6E4900D ->Accurately ripped! (confidence 27) Statistics Read error : 0 Skipped (treated as error) : 0 Edge jitter error (maybe fixed) : 0 Atom jitter error (maybe fixed) : 0 Drift error (maybe fixed) : 0 Dropped bytes error (maybe fixed) : 0 Duplicated bytes error (maybe fixed) : 0 Inconsistency in error sectors : 0

Track 05 Filename : /Volumes/Media/Torrents/Music Uploads/Hans Zimmer and Lisa Gerrard - Gladiator Anniversary Edition/Hans Zimmer and Lisa Gerrard - Gladiator Anniversary Edition (2005 FLAC)/0205 - The General Who Became a Slave.flac

Track gain : 2.21 dB Peak : 0.955566 CRC32 hash (test run) : CBF684B0 CRC32 hash : CBF684B0 CRC32 hash (skip zero) : 16E4E06A AccurateRip signature : D4F36688 ->Accurately ripped! (confidence 27) Statistics Read error : 0 Skipped (treated as error) : 0 Edge jitter error (maybe fixed) : 0 Atom jitter error (maybe fixed) : 0 Drift error (maybe fixed) : 0 Dropped bytes error (maybe fixed) : 0 Duplicated bytes error (maybe fixed) : 0 Inconsistency in error sectors : 0

Track 06 Filename : /Volumes/Media/Torrents/Music Uploads/Hans Zimmer and Lisa Gerrard - Gladiator Anniversary Edition/Hans Zimmer and Lisa Gerrard - Gladiator Anniversary Edition (2005 FLAC)/0206 - The Slave Who Became a Gladiator.flac

Track gain : -3.04 dB Peak : 0.971039 CRC32 hash (test run) : 3FD93AEB CRC32 hash : 3FD93AEB CRC32 hash (skip zero) : 1F421772 AccurateRip signature : 33271F04 ->Accurately ripped! (confidence 27) Statistics Read error : 0 Skipped (treated as error) : 0 Edge jitter error (maybe fixed) : 0 Atom jitter error (maybe fixed) : 0 Drift error (maybe fixed) : 0 Dropped bytes error (maybe fixed) : 0 Duplicated bytes error (maybe fixed) : 0 Inconsistency in error sectors : 0

Track 07 Filename : /Volumes/Media/Torrents/Music Uploads/Hans Zimmer and Lisa Gerrard - Gladiator Anniversary Edition/Hans Zimmer and Lisa Gerrard - Gladiator Anniversary Edition (2005 FLAC)/0207 - Secrets.flac

Track gain : 6.55 dB Peak : 0.701172 CRC32 hash (test run) : 712913C0 CRC32 hash : 712913C0 CRC32 hash (skip zero) : 66B836AB AccurateRip signature : 4DD40242 ->Accurately ripped! (confidence 27) Statistics Read error : 0 Skipped (treated as error) : 0 Edge jitter error (maybe fixed) : 0 Atom jitter error (maybe fixed) : 0 Drift error (maybe fixed) : 0 Dropped bytes error (maybe fixed) : 0 Duplicated bytes error (maybe fixed) : 0 Inconsistency in error sectors : 0

Track 08 Filename : /Volumes/Media/Torrents/Music Uploads/Hans Zimmer and Lisa Gerrard - Gladiator Anniversary Edition/Hans Zimmer and Lisa Gerrard - Gladiator Anniversary Edition (2005 FLAC)/0208 - Rome Is the Light.flac

Track gain : -2.45 dB Peak : 0.959015 CRC32 hash (test run) : 5C36C5BA CRC32 hash : 5C36C5BA CRC32 hash (skip zero) : E4234B2F AccurateRip signature : 07D5EF7E ->Accurately ripped! (confidence 27) Statistics Read error : 0 Skipped (treated as error) : 0 Edge jitter error (maybe fixed) : 0 Atom jitter error (maybe fixed) : 0 Drift error (maybe fixed) : 0 Dropped bytes error (maybe fixed) : 0 Duplicated bytes error (maybe fixed) : 0 Inconsistency in error sectors : 0

Track 09 Filename : /Volumes/Media/Torrents/Music Uploads/Hans Zimmer and Lisa Gerrard - Gladiator Anniversary Edition/Hans Zimmer and Lisa Gerrard - Gladiator Anniversary Edition (2005 FLAC)/0209 - All That Remains.flac

Track gain : 13.90 dB Peak : 0.527191 CRC32 hash (test run) : A1E21E6D CRC32 hash : A1E21E6D CRC32 hash (skip zero) : 2C76C986 AccurateRip signature : D45B176B ->Accurately ripped! (confidence 27) Statistics Read error : 0 Skipped (treated as error) : 0 Edge jitter error (maybe fixed) : 0 Atom jitter error (maybe fixed) : 0 Drift error (maybe fixed) : 0 Dropped bytes error (maybe fixed) : 0 Duplicated bytes error (maybe fixed) : 0 Inconsistency in error sectors : 0

Track 10 Filename : /Volumes/Media/Torrents/Music Uploads/Hans Zimmer and Lisa Gerrard - Gladiator Anniversary Edition/Hans Zimmer and Lisa Gerrard - Gladiator Anniversary Edition (2005 FLAC)/0210 - Maximus.flac

Track gain : 7.96 dB Peak : 0.400482 CRC32 hash (test run) : 6F3E8C9F CRC32 hash : 6F3E8C9F CRC32 hash (skip zero) : 1C10C424 AccurateRip signature : 40049B3E ->Accurately ripped! (confidence 27) Statistics Read error : 0 Skipped (treated as error) : 0 Edge jitter error (maybe fixed) : 0 Atom jitter error (maybe fixed) : 0 Drift error (maybe fixed) : 0 Dropped bytes error (maybe fixed) : 0 Duplicated bytes error (maybe fixed) : 0 Inconsistency in error sectors : 0

Track 11 Filename : /Volumes/Media/Torrents/Music Uploads/Hans Zimmer and Lisa Gerrard - Gladiator Anniversary Edition/Hans Zimmer and Lisa Gerrard - Gladiator Anniversary Edition (2005 FLAC)/0211 - Marrakesh Marketplace.flac

Track gain : -3.81 dB Peak : 0.957062 CRC32 hash (test run) : 9964A32E CRC32 hash : 9964A32E CRC32 hash (skip zero) : 475D4C77 AccurateRip signature : CDBDD5FB ->Accurately ripped! (confidence 27) Statistics Read error : 0 Skipped (treated as error) : 0 Edge jitter error (maybe fixed) : 0 Atom jitter error (maybe fixed) : 0 Drift error (maybe fixed) : 0 Dropped bytes error (maybe fixed) : 0 Duplicated bytes error (maybe fixed) : 0 Inconsistency in error sectors : 0

Track 12 Filename : /Volumes/Media/Torrents/Music Uploads/Hans Zimmer and Lisa Gerrard - Gladiator Anniversary Edition/Hans Zimmer and Lisa Gerrard - Gladiator Anniversary Edition (2005 FLAC)/0212 - The Gladiator Waltz.flac

Track gain : -3.60 dB Peak : 0.974884 CRC32 hash (test run) : 3A25020B CRC32 hash : 3A25020B CRC32 hash (skip zero) : CCCE382E AccurateRip signature : 9B50E5A8 ->Accurately ripped! (confidence 27) Statistics Read error : 0 Skipped (treated as error) : 0 Edge jitter error (maybe fixed) : 0 Atom jitter error (maybe fixed) : 0 Drift error (maybe fixed) : 0 Dropped bytes error (maybe fixed) : 0 Duplicated bytes error (maybe fixed) : 0 Inconsistency in error sectors : 0

Track 13 Filename : /Volumes/Media/Torrents/Music Uploads/Hans Zimmer and Lisa Gerrard - Gladiator Anniversary Edition/Hans Zimmer and Lisa Gerrard - Gladiator Anniversary Edition (2005 FLAC)/0213 - Figurines.flac

Track gain : 3.84 dB Peak : 0.426788 CRC32 hash (test run) : E69B08B2 CRC32 hash : E69B08B2 CRC32 hash (skip zero) : 98B4F1EB AccurateRip signature : 909957FE ->Accurately ripped! (confidence 27) Statistics Read error : 0 Skipped (treated as error) : 0 Edge jitter error (maybe fixed) : 0 Atom jitter error (maybe fixed) : 0 Drift error (maybe fixed) : 0 Dropped bytes error (maybe fixed) : 0 Duplicated bytes error (maybe fixed) : 0 Inconsistency in error sectors : 0

Track 14 Filename : /Volumes/Media/Torrents/Music Uploads/Hans Zimmer and Lisa Gerrard - Gladiator Anniversary Edition/Hans Zimmer and Lisa Gerrard - Gladiator Anniversary Edition (2005 FLAC)/0214 - The Mob.flac

Track gain : -4.07 dB Peak : 0.966583 CRC32 hash (test run) : 4E619534 CRC32 hash : 4E619534 CRC32 hash (skip zero) : 51CB8E00 AccurateRip signature : 9645F047 ->Accurately ripped! (confidence 27) Statistics Read error : 0 Skipped (treated as error) : 0 Edge jitter error (maybe fixed) : 0 Atom jitter error (maybe fixed) : 0 Drift error (maybe fixed) : 0 Dropped bytes error (maybe fixed) : 0 Duplicated bytes error (maybe fixed) : 0 Inconsistency in error sectors : 0

Track 15 Filename : /Volumes/Media/Torrents/Music Uploads/Hans Zimmer and Lisa Gerrard - Gladiator Anniversary Edition/Hans Zimmer and Lisa Gerrard - Gladiator Anniversary Edition (2005 FLAC)/0215 - Busy Little Bee.flac

Track gain : 4.35 dB Peak : 0.960419 CRC32 hash (test run) : 6F360B0B CRC32 hash : 6F360B0B CRC32 hash (skip zero) : EC0B1169 AccurateRip signature : EC1356CE ->Accurately ripped! (confidence 27) Statistics Read error : 0 Skipped (treated as error) : 0 Edge jitter error (maybe fixed) : 0 Atom jitter error (maybe fixed) : 0 Drift error (maybe fixed) : 0 Dropped bytes error (maybe fixed) : 0 Duplicated bytes error (maybe fixed) : 0 Inconsistency in error sectors : 0

Track 16 Filename : /Volumes/Media/Torrents/Music Uploads/Hans Zimmer and Lisa Gerrard - Gladiator Anniversary Edition/Hans Zimmer and Lisa Gerrard - Gladiator Anniversary Edition (2005 FLAC)/0216 - Death Smiles at Us All.flac

Track gain : 0.72 dB Peak : 0.962646 CRC32 hash (test run) : 39202D8B CRC32 hash : 39202D8B CRC32 hash (skip zero) : DBA6F416 AccurateRip signature : B0325776 ->Accurately ripped! (confidence 27) Statistics Read error : 0 Skipped (treated as error) : 0 Edge jitter error (maybe fixed) : 0 Atom jitter error (maybe fixed) : 0 Drift error (maybe fixed) : 0 Dropped bytes error (maybe fixed) : 0 Duplicated bytes error (maybe fixed) : 0 Inconsistency in error sectors : 0

Track 17 Filename : /Volumes/Media/Torrents/Music Uploads/Hans Zimmer and Lisa Gerrard - Gladiator Anniversary Edition/Hans Zimmer and Lisa Gerrard - Gladiator Anniversary Edition (2005 FLAC)/0217 - Not Yet.flac

Track gain : 6.56 dB Peak : 0.254639 CRC32 hash (test run) : D7B423C9 CRC32 hash : D7B423C9 CRC32 hash (skip zero) : CDEF1A7E AccurateRip signature : 5413E7A3 ->Accurately ripped! (confidence 27) Statistics Read error : 0 Skipped (treated as error) : 0 Edge jitter error (maybe fixed) : 0 Atom jitter error (maybe fixed) : 0 Drift error (maybe fixed) : 0 Dropped bytes error (maybe fixed) : 0 Duplicated bytes error (maybe fixed) : 0 Inconsistency in error sectors : 0

Track 18 Filename : /Volumes/Media/Torrents/Music Uploads/Hans Zimmer and Lisa Gerrard - Gladiator Anniversary Edition/Hans Zimmer and Lisa Gerrard - Gladiator Anniversary Edition (2005 FLAC)/0218 - Now We Are Free (Maximus Mix).flac

Track gain : -5.03 dB Peak : 0.949982 CRC32 hash (test run) : 8627A250 CRC32 hash : 8627A250 CRC32 hash (skip zero) : 1D23BE4F AccurateRip signature : 864C8F94 ->Accurately ripped! (confidence 26) Statistics Read error : 0 Skipped (treated as error) : 0 Edge jitter error (maybe fixed) : 0 Atom jitter error (maybe fixed) : 0 Drift error (maybe fixed) : 0 Dropped bytes error (maybe fixed) : 0 Duplicated bytes error (maybe fixed) : 0 Inconsistency in error sectors : 0

No errors occurred

End of status report
 
TITLE "Gladiator - Music from the Motion Picture, Special Anniversary Edition"PERFORMER "Hans Zimmer and Lisa Gerrard"CATALOG 0044001319228REM GENRE "Soundtrack"REM DATE "2001-02-27"FILE "0201 - Duduk of the North.wav" WAVE TRACK 01 AUDIO TITLE "Duduk of the North" SONGWRITER "Hans Zimmer" ISRC USUMC0110061 INDEX 01 00:00:00FILE "0202 - Now We Are Free (Juba's mix).wav" WAVE TRACK 02 AUDIO TITLE "Now We Are Free (Juba's mix)" SONGWRITER "Hans Zimmer" ISRC USUMC0110062 INDEX 01 00:00:00FILE "0203 - The Protector of Rome.wav" WAVE TRACK 03 AUDIO TITLE "The Protector of Rome" SONGWRITER "Hans Zimmer" ISRC USUMC0110063 INDEX 01 00:00:00FILE "0204 - Homecoming.wav" WAVE TRACK 04 AUDIO TITLE "Homecoming" SONGWRITER "Hans Zimmer" ISRC USUMC0110065 INDEX 01 00:00:00FILE "0205 - The General Who Became a Slave.wav" WAVE TRACK 05 AUDIO TITLE "The General Who Became a Slave" SONGWRITER "Hans Zimmer" ISRC USUMC0110066 INDEX 01 00:00:00FILE "0206 - The Slave Who Became a Gladiator.wav" WAVE TRACK 06 AUDIO TITLE "The Slave Who Became a Gladiator" SONGWRITER "Hans Zimmer" ISRC USUMC0110067 INDEX 01 00:00:00FILE "0207 - Secrets.wav" WAVE TRACK 07 AUDIO TITLE "Secrets" SONGWRITER "Hans Zimmer" ISRC USUMC0110070 INDEX 01 00:00:00FILE "0208 - Rome Is the Light.wav" WAVE TRACK 08 AUDIO TITLE "Rome Is the Light" SONGWRITER "Hans Zimmer" ISRC USUMC0110068 INDEX 01 00:00:00FILE "0209 - All That Remains.wav" WAVE TRACK 09 AUDIO TITLE "All That Remains" SONGWRITER "Hans Zimmer" ISRC USUMC0110058 INDEX 01 00:00:00FILE "0210 - Maximus.wav" WAVE TRACK 10 AUDIO TITLE "Maximus" SONGWRITER "Hans Zimmer" ISRC USUMC0110069 INDEX 01 00:00:00FILE "0211 - Marrakesh Marketplace.wav" WAVE TRACK 11 AUDIO TITLE "Marrakesh Marketplace" SONGWRITER "Hans Zimmer" ISRC USUMC0110071 INDEX 01 00:00:00FILE "0212 - The Gladiator Waltz.wav" WAVE TRACK 12 AUDIO TITLE "The Gladiator Waltz" SONGWRITER "Hans Zimmer" ISRC USUMC0110072 INDEX 01 00:00:00FILE "0213 - Figurines.wav" WAVE TRACK 13 AUDIO TITLE "Figurines" SONGWRITER "Hans Zimmer" ISRC USUMC0110073 INDEX 01 00:00:00FILE "0214 - The Mob.wav" WAVE TRACK 14 AUDIO TITLE "The Mob" SONGWRITER "Hans Zimmer" ISRC USUMC0110074 INDEX 01 00:00:00FILE "0215 - Busy Little Bee.wav" WAVE TRACK 15 AUDIO TITLE "Busy Little Bee" SONGWRITER "Hans Zimmer" ISRC USUMC0110059 INDEX 01 00:00:00FILE "0216 - Death Smiles at Us All.wav" WAVE TRACK 16 AUDIO TITLE "Death Smiles at Us All" SONGWRITER "Hans Zimmer" ISRC USUMC0110064 INDEX 01 00:00:00FILE "0217 - Not Yet.wav" WAVE TRACK 17 AUDIO TITLE "Not Yet" SONGWRITER "Hans Zimmer" ISRC USUMC0110075 INDEX 01 00:00:00FILE "0218 - Now We Are Free (Maximus Mix).wav" WAVE TRACK 18 AUDIO TITLE "Now We Are Free (Maximus Mix)" SONGWRITER "Hans Zimmer" ISRC USUMC0110060 REM REPLAYGAIN_TRACK_GAIN -5.03 dB REM REPLAYGAIN_TRACK_PEAK 0.949982 INDEX 01 00:00:00


Трекер:  [ 20-Дек-2010 16:24 ]

  

Скачать .torrent

Размер .torrent файла 14 KB


Размер: 607 MB
Хэш (hash) релиза: 2fa42556ed652b488ff30d49cadeb7b65e2f836e

Торренты, похожие на Гладиатор Gladiator скачать торрент

Форум Название Автор Размер S L Добавлен
Саундтреки к фильмам и мультфильмам (mp3) ·· (Score) Гладиатор / Gladiator [Special Anniversary Edition] (by Hans Zimmer & Lisa Gerrard) - 2005 (2000), MP3 (tracks), 320 kbps Phoenix 282013071269 MB 0 0 1292264993

21:29

13-Дек-10

Саундтреки к фильмам и мультфильмам (mp3) ·· (Score Suite) Gladiator / Гладиатор (Hans Zimmer, Lisa Gerrard, Klaus Badelt) - 2000, MP3 (tracks), 320 kbps Galfimbul 10242721398 MB 0 0 1292265597

21:39

13-Дек-10

bot

Топик был перенесен в форум Саундтреки к фильмам и мультфильмам (lossless)

Перенес AqvaGen

Хотите добавить комментарий к записи скачать торрент Гладиатор Gladiator

!Обратная связь