Скачать через торрент музыку Сумерки Twilight бесплатно без регистрации torrent

Статистика раздачи
Размер:  422 MB   |    Зарегистрирован:  7 лет 7 месяцев   |    .torrent скачан:  100 раз   |   
Раздают:  1  
   
загрузка...
 
Автор Сообщение

AqvaGen


(OST) Сумерки / Twilight - 2009 - DELUXE VERSION

Год выпуска диска: 2009
Производитель диска: USA
Композитор: Carter Burwell
Подбор композиций: Alexandra Patsavas
Аудио: FLAC, Stereo, 44,1 KHz
Продолжительность: 1:06:14
Трэклист:
01. Muse - Supermassive Black Hole 3:31
02. Paramore - Decode 4:22
03. The Black Ghosts - Full Moon 3:50
04. Linkin Park - Leave Out All The Rest 3:20
05. Mutemath - Spotlight (Twilight Mix) 3:20
06. Perry Farrell - Go All The Way (Into The Twilight) 3:27
07. Collective Soul - Tremble For My Beloved 3:53
08. Paramore - I Caught Myself 3:55
09. Blue Foundation - Eyes On Fire 5:01
10. Rob Pattinson - Never Think 4:30
11. Iron & Wine - Flightless Bird, American Mouth 4:02
12. Carter Burwell - Bellas Lullaby 2:20
Бонусы Deluxe-версии:
13. O.A.R. - Love Is Worth The Fall 3:38
14. Paramore - Decode (Acoustic) 4:27
15. Iron & Wine - Flightless Bird, American Mouth (Live) 4:13
16. Mutemath - Spotlight (Son Lux Remix) 3:27
17. The Black Ghosts - Full Moon (Appleblim & Komonazmuk Remix) 4:53
 
EAC extraction logfile from 2. May 2009, 19:56 for CDVarious / Twilight Original Motion Picture Soundtrack CD\DVD (Deluxe Version)

Used drive : PHILIPS DVD-ROM DROM6316 Adapter: 0 ID: 1Read mode : Secure with NO C2, accurate stream, disable cacheRead offset correction : 6Overread into Lead-In and Lead-Out : No

Used output format : C:\Program Files\Exact Audio Copy\flac-1.1.4-win\bin\flac.exe (User Defined Encoder) 192 kBit/s Additional command line options : -8 -A tukey(0.25) -A gauss(0.1875) -b 4096 -V -T "artist=%a" -T "title=%t" -T "album=%g" -T "date=%y" -T "tracknumber=%n" -T "genre=%m" %s --sector-align

Other options : Fill up missing offset samples with silence : Yes Delete leading and trailing silent blocks : No Installed external ASPI interface

Track 1 Filename C:\RIPS\VA - Twilight Original Motion Picture Soundtrack CDDVD (Deluxe Version) FLAC\01 - Supermassive Black Hole - Muse.wav

Pre-gap length 0:00:02.00

Peak level 94.3 % Track quality 100.0 % Test CRC EB88058E Copy CRC EB88058E Copy OK

Track 2 Filename C:\RIPS\VA - Twilight Original Motion Picture Soundtrack CDDVD (Deluxe Version) FLAC\02 - Decode - Paramore.wav

Pre-gap length 0:00:01.56

Peak level 100.0 % Track quality 99.9 % Test CRC 4FE68C06 Copy CRC 4FE68C06 Copy OK

Track 3 Filename C:\RIPS\VA - Twilight Original Motion Picture Soundtrack CDDVD (Deluxe Version) FLAC\03 - Full Moon - The Black Ghosts.wav

Peak level 98.8 % Track quality 100.0 % Test CRC 73B450DF Copy CRC 73B450DF Copy OK

Track 4 Filename C:\RIPS\VA - Twilight Original Motion Picture Soundtrack CDDVD (Deluxe Version) FLAC\04 - Leave Out All The Rest - Linkin Park.wav

Peak level 97.7 % Track quality 100.0 % Test CRC D8D0B43A Copy CRC D8D0B43A Copy OK

Track 5 Filename C:\RIPS\VA - Twilight Original Motion Picture Soundtrack CDDVD (Deluxe Version) FLAC\05 - Spotlight (Twilight Mix) - MuteMath.wav

Peak level 94.3 % Track quality 100.0 % Test CRC F95908A6 Copy CRC F95908A6 Copy OK

Track 6 Filename C:\RIPS\VA - Twilight Original Motion Picture Soundtrack CDDVD (Deluxe Version) FLAC\06 - Go All The Way (Into The Twilight) - Perry Farrell.wav

Peak level 91.9 % Track quality 100.0 % Test CRC 3E482E9E Copy CRC 3E482E9E Copy OK

Track 7 Filename C:\RIPS\VA - Twilight Original Motion Picture Soundtrack CDDVD (Deluxe Version) FLAC\07 - Tremble for My Beloved - Collective Soul.wav

Peak level 100.0 % Track quality 100.0 % Test CRC 45425EAD Copy CRC 45425EAD Copy OK

Track 8 Filename C:\RIPS\VA - Twilight Original Motion Picture Soundtrack CDDVD (Deluxe Version) FLAC\08 - I Caught Myself - Paramore.wav

Peak level 100.0 % Track quality 99.9 % Test CRC B49065E9 Copy CRC B49065E9 Copy OK

Track 9 Filename C:\RIPS\VA - Twilight Original Motion Picture Soundtrack CDDVD (Deluxe Version) FLAC\09 - Eyes On Fire - Blue Foundation.wav

Peak level 98.8 % Track quality 100.0 % Test CRC 50528876 Copy CRC 50528876 Copy OK

Track 10 Filename C:\RIPS\VA - Twilight Original Motion Picture Soundtrack CDDVD (Deluxe Version) FLAC\10 - Never Think - Rob Pattinson.wav

Peak level 98.8 % Track quality 100.0 % Test CRC D9F94CE1 Copy CRC D9F94CE1 Copy OK

Track 11 Filename C:\RIPS\VA - Twilight Original Motion Picture Soundtrack CDDVD (Deluxe Version) FLAC\11 - Flightless Bird, American Mouth - Iron and Wine.wav

Pre-gap length 0:00:01.30

Peak level 96.2 % Track quality 99.9 % Test CRC 67416404 Copy CRC 67416404 Copy OK

Track 12 Filename C:\RIPS\VA - Twilight Original Motion Picture Soundtrack CDDVD (Deluxe Version) FLAC\12 - Bella's Lullaby - Carter Burwell.wav

Pre-gap length 0:00:01.82

Peak level 98.0 % Track quality 100.0 % Test CRC AFDC37F8 Copy CRC AFDC37F8 Copy OK

Track 13 Filename C:\RIPS\VA - Twilight Original Motion Picture Soundtrack CDDVD (Deluxe Version) FLAC\13 - Love Is Worth The Fall - O.A.R..wav

Pre-gap length 0:00:01.20

Peak level 88.1 % Track quality 100.0 % Test CRC CED59BBA Copy CRC CED59BBA Copy OK

Track 14 Filename C:\RIPS\VA - Twilight Original Motion Picture Soundtrack CDDVD (Deluxe Version) FLAC\14 - Decode (Acoustic) - Paramore.wav

Pre-gap length 0:00:00.56

Peak level 98.8 % Track quality 100.0 % Test CRC BCC6ACF9 Copy CRC BCC6ACF9 Copy OK

Track 15 Filename C:\RIPS\VA - Twilight Original Motion Picture Soundtrack CDDVD (Deluxe Version) FLAC\15 - Flightless Bird, American Mouth - Iron and Wine.wav

Peak level 98.8 % Track quality 100.0 % Test CRC 7E2D36AC Copy CRC 7E2D36AC Copy OK

Track 16 Filename C:\RIPS\VA - Twilight Original Motion Picture Soundtrack CDDVD (Deluxe Version) FLAC\16 - Spotlight (Son Lux Remix) - MuteMath.wav

Pre-gap length 0:00:01.81

Peak level 98.8 % Track quality 100.0 % Test CRC 99AA161C Copy CRC 99AA161C Copy OK

Track 17 Filename C:\RIPS\VA - Twilight Original Motion Picture Soundtrack CDDVD (Deluxe Version) FLAC\17 - Full Moon (Appleblim and Komonazmuk Remix) - The Black Ghosts.wav

Pre-gap length 0:00:00.70

Peak level 98.9 % Track quality 100.0 % Test CRC 0106A764 Copy CRC 0106A764 Copy OK

No errors occured

End of status report


Трекер:  [ 19-Дек-2010 14:52 ]

  

Скачать .torrent

Размер .torrent файла 18 KB


Размер: 422 MB
Хэш (hash) релиза: 62e06176eb5b00578de7a762501926fd21bac852

Торренты, похожие на Сумерки Twilight скачать торрент

Форум Название Автор Размер S L Добавлен
Саундтреки к фильмам и мультфильмам (lossless) ·· (Score) Сумерки / Twilight - 2008, FLAC (tracks+.cue), lossless FRANKS 207239421198 MB 0 0 1292268437

22:27

13-Дек-10

Саундтреки к фильмам и мультфильмам (mp3) ·· (Score) Сумерки / Twilight (Carter Burwell) - 2008, MP3 (tracks), 320 kbps Phoenix 113196470108 MB 0 0 1292265014

21:30

13-Дек-10

Саундтреки к фильмам и мультфильмам (mp3) ·· (Soundtrack) Сумерки / Twilight (Deluxe Edition) (Paramore, Muse, Linkin Park) - 2009, MP3 (tracks), 320 kbps Phoenix 159949363153 MB 0 0 1292264989

21:29

13-Дек-10

Саундтреки к фильмам и мультфильмам (lossless) ·· (Soundtrack) Сумерки. Сага: Рассвет - Часть 2 / The Twilight Saga: Breaking Dawn - Part 2 (The Twilight Saga: Breaking Dawn - Part 2) - 2012, FLAC (image+.cue), lossless Galfimbul 461476403440 MB 0 0 1448706407

13:26

28-Ноя-15

Саундтреки к фильмам и мультфильмам (lossless) ·· (Soundtrack) Сумерки. Сага / The Twilight Saga (Music from The Twilight Saga Performed by The City of Prague Philharmonic Orchestra) (Carter Burwell/Aleksandre Desplant/Howard Shore) - 2012, FLAC (image+.cue), lossless Polarnik 396845198378 MB 0 0 1376339674

23:34

12-Авг-13

Саундтреки ·· (Score) Сумерки. Сага. Рассвет: Часть 2 / The Twilight Saga: Breaking Dawn - Part 2 (by Carter Burwell) - 2012, MP3, 320 kbps Galfimbul 176621126168 MB 0 0 1356814200

23:50

29-Дек-12

Саундтреки к фильмам и мультфильмам (lossless) ·· (Soundtrack) Сумерки. Сага. Новолуние / The Twilight Saga: New Moon - 2009, FLAC (tracks+.cue), lossless Galfimbul 380294123363 MB 0 0 1327143711

14:01

21-Янв-12

Саундтреки к фильмам и мультфильмам (mp3) ·· (Score) Сумерки. Сага. Рассвет: Часть 1 / The Twilight Saga: Breaking Dawn - Part 1 (by Carter Burwell) - 2011, MP3, 320 kbps Galfimbul 152391816145 MB 0 0 1323459711

22:41

9-Дек-11

Саундтреки к фильмам и мультфильмам (lossless) ·· (Score) Сумерки. Сага. Рассвет: Часть 1 / The Twilight Saga: Breaking Dawn - Part 1 (by Carter Burwell) - 2011, FLAC (tracks+.cue), lossless uzi2009 306949167293 MB 0 0 1323452529

20:42

9-Дек-11

Саундтреки к фильмам и мультфильмам (mp3) ·· (Soundtrack) Сумерки. Сага. Рассвет: Часть 1 / The Twilight Saga: Breaking Dawn - Part 1 [iTunes Deluxe Edition] - 2011 , AAC, 256kbps Galfimbul 157699763150 MB 0 0 1320855689

19:21

9-Ноя-11

Саундтреки к фильмам и мультфильмам (lossless) ·· (Soundtrack) VA - Twilight / Сумерки - 2008, FLAC (image+.cue), lossless Galfimbul 309150691295 MB 0 0 1292268463

22:27

13-Дек-10

Саундтреки к фильмам и мультфильмам (lossless) ·· (Score) The Twilight Saga: Eclipse / Сумерки. Сага. Затмение (by Howard Shore) - 2010, FLAC (image+.cue), lossless AqvaGen 317830096303 MB 0 0 1292268436

22:27

13-Дек-10

Саундтреки к фильмам и мультфильмам (lossless) ·· (Soundtrack) Сумерки. Сага: Затмение / The Twilight Saga: Eclipse - 2010, FLAC (image+.cue), lossless AqvaGen 548546381523 MB 0 0 1292268421

22:27

13-Дек-10

Саундтреки к фильмам и мультфильмам (lossless) ·· (Soundtrack) Howard Shore & VA - The Twilight Saga: Eclipse / Сумерки. Сага. Затмение (18tr Deluxe-Edition) - 2010, FLAC (image+.cue), lossless AqvaGen 535639278511 MB 0 0 1292268415

22:26

13-Дек-10

Саундтреки к фильмам и мультфильмам (mp3) ·· (Soundtrack) The Twilight Saga: New Moon / Сумерки. Сага. Новолуние (Alexandre Desplat & VA) - 2009, MP3 (tracks), 320 kbps Galfimbul 140439479134 MB 0 0 1292265102

21:31

13-Дек-10

Саундтреки к фильмам и мультфильмам (mp3) ·· (Soundtrack/Alternative) Сумерки. Сага. Новолуние / The Twilight Saga: New Moon (Muse, The Killers) - 2009, M4A (tracks), 256 kbps Phoenix 142996742136 MB 0 0 1292265049

21:30

13-Дек-10

Саундтреки к фильмам и мультфильмам (mp3) ·· (Soundtrack / Alternative) Сумерки. Сага. Затмение / The Twilight Saga: Eclipse (iTunes digital album) (Muse, Howard Shore) - 2010, M4A (tracks), 256 kbps AqvaGen 185698042177 MB 0 0 1292265023

21:30

13-Дек-10

Саундтреки к фильмам и мультфильмам (mp3) ·· (Score) Сумерки Сага: Новолуние / The Twilight Saga: New Moon (by Alexandre Desplat) - 2009, MP3, 320 kbps Phoenix 174533199166 MB 0 0 1292265009

21:30

13-Дек-10

Саундтреки к фильмам и мультфильмам (mp3) ·· (Soundtrack)Сумерки Сага: Новолуние / The Twilight Saga: New Moon - 2009, MP3 (tracks), 320 kbps Phoenix 111790755107 MB 0 0 1292265007

21:30

13-Дек-10

bot

Топик был перенесен в форум Саундтреки к фильмам и мультфильмам (lossless)

Перенес AqvaGen

Хотите добавить комментарий к записи скачать торрент Сумерки Twilight

!Обратная связь