Скачать через торрент музыку Хатико: История собаки бесплатно без регистрации torrent

Статистика раздачи
Размер:  241 MB   |    Зарегистрирован:  7 лет 4 месяца   |    .torrent скачан:  68 раз   |   
Раздают:  1  
   
загрузка...
 
Автор Сообщение

AqvaGen


Хатико: История собаки (Самый верный друг) / Hachiko: A Dog's Story (by Jan A.P. Kaczmarek)

Жанр: Score
Год выпуска диска: 2009
Производитель диска: Japan
Аудио кодек: FLAC
Тип рипа: tracks+.cue
Битрейт аудио: lossless
Продолжительность: 56:07
Трэклист:
01. Japan (3:26)
02. New Home (1:47)
03. The Foot (2:40)
04. Dance Rehersal (2:15)
05. Storm And The Rescue (1:36)
06. The Second Dance (0:51)
07. Under The Fence (1:51)
08. Treats From Cate (1:51)
09. Parker's Dance Played On Piano (3:42)
10. Parker And Hachi Walk To The Station (2:04)
11. Baby (1:23)
12. Marriage Bath (3:27)
13. Fetch (2:12)
14. To Train Together (3:25)
15. Packing Boxes (2:15)
16. Parker And Hachi (3:28)
17. Hachiko Runs Away (4:28)
18. Memory Of The Storm (1:36)
19. Hachi - Waiting For Parker Again (2:51)
20. Hachi - Last Trip To The Station (2:06)
21. Goodbye (2:10)
22. Hachi, Parker And Cate & Memories (3:58)
23. Hachi's Voice (version 1) (0:15)
24. Hachi's Voice (version 2) (0:10)
25. Hachi's Voice (version 3) (0:11)
26. Hachi's Voice (version 4) (0:09)
 
Exact Audio Copy V0.99 prebeta 5 from 4. May 2009

EAC extraction logfile from 5. December 2009, 11:33

Jan A.P. Kaczmarek / Hachiko: A Dog's Story

Used drive : _NEC DVD_RW ND-4571A Adapter: 1 ID: 0

Read mode : SecureUtilize accurate stream : YesDefeat audio cache : YesMake use of C2 pointers : No

Read offset correction : 48Overread into Lead-In and Lead-Out : NoFill up missing offset samples with silence : YesDelete leading and trailing silent blocks : NoNull samples used in CRC calculations : YesUsed interface : Installed external ASPI interfaceGap handling : Appended to previous track

Used output format : User Defined EncoderSelected bitrate : 1024 kBit/sQuality : HighAdd ID3 tag : NoCommand line compressor : C:\Program Files\Exact Audio Copy\FLAC\FLAC.EXEAdditional command line options : -6 -V -T "ARTIST=%a" -T "TITLE=%t" -T "ALBUM=%g" -T "DATE=%y" -T "TRACKNUMBER=%n" -T "GENRE=%m" -T "COMMENT=%e" %s -o %d

TOC of the extracted CD

Track | Start | Length | Start sector | End sector --------------------------------------------------------- 1 | 0:00.00 | 3:26.57 | 0 | 15506 2 | 3:26.57 | 1:47.00 | 15507 | 23531 3 | 5:13.57 | 2:40.38 | 23532 | 35569 4 | 7:54.20 | 2:15.53 | 35570 | 45747 5 | 10:09.73 | 1:36.31 | 45748 | 52978 6 | 11:46.29 | 0:51.48 | 52979 | 56851 7 | 12:38.02 | 1:51.49 | 56852 | 65225 8 | 14:29.51 | 1:51.35 | 65226 | 73585 9 | 16:21.11 | 3:42.41 | 73586 | 90276 10 | 20:03.52 | 2:04.14 | 90277 | 99590 11 | 22:07.66 | 1:23.52 | 99591 | 105867 12 | 23:31.43 | 3:27.45 | 105868 | 121437 13 | 26:59.13 | 2:12.20 | 121438 | 131357 14 | 29:11.33 | 3:25.06 | 131358 | 146738 15 | 32:36.39 | 2:15.28 | 146739 | 156891 16 | 34:51.67 | 3:28.04 | 156892 | 172495 17 | 38:19.71 | 4:27.72 | 172496 | 192592 18 | 42:47.68 | 1:36.58 | 192593 | 199850 19 | 44:24.51 | 2:51.21 | 199851 | 212696 20 | 47:15.72 | 2:06.31 | 212697 | 222177 21 | 49:22.28 | 2:10.13 | 222178 | 231940 22 | 51:32.41 | 3:52.50 | 231941 | 249390 23 | 55:25.16 | 0:12.13 | 249391 | 250303 24 | 55:37.29 | 0:08.07 | 250304 | 250910 25 | 55:45.36 | 0:08.62 | 250911 | 251572 26 | 55:54.23 | 0:09.22 | 251573 | 252269

Track 1

Filename D:\RG\2009 - Hachiko- A Dog's Story Soundtrack (flac)\01. Japan.wav

Peak level 85.3 % Track quality 100.0 % Test CRC AF52126D Copy CRC AF52126D Track not present in AccurateRip database Copy OK

Track 2

Filename D:\RG\2009 - Hachiko- A Dog's Story Soundtrack (flac)\02. New Home.wav

Peak level 83.7 % Track quality 100.0 % Test CRC 39FAC24B Copy CRC 39FAC24B Track not present in AccurateRip database Copy OK

Track 3

Filename D:\RG\2009 - Hachiko- A Dog's Story Soundtrack (flac)\03. The Foot.wav

Peak level 87.4 % Track quality 100.0 % Test CRC 8AAA8901 Copy CRC 8AAA8901 Track not present in AccurateRip database Copy OK

Track 4

Filename D:\RG\2009 - Hachiko- A Dog's Story Soundtrack (flac)\04. Dance Rehersal.wav

Peak level 83.3 % Track quality 100.0 % Test CRC CD743CF4 Copy CRC CD743CF4 Track not present in AccurateRip database Copy OK

Track 5

Filename D:\RG\2009 - Hachiko- A Dog's Story Soundtrack (flac)\05. Storm And The Rescue.wav

Peak level 85.0 % Track quality 100.0 % Test CRC 86FEDCCB Copy CRC 86FEDCCB Track not present in AccurateRip database Copy OK

Track 6

Filename D:\RG\2009 - Hachiko- A Dog's Story Soundtrack (flac)\06. The Second Dance.wav

Peak level 86.2 % Track quality 100.0 % Test CRC 5A24E2DF Copy CRC 5A24E2DF Track not present in AccurateRip database Copy OK

Track 7

Filename D:\RG\2009 - Hachiko- A Dog's Story Soundtrack (flac)\07. Under The Fence.wav

Peak level 87.1 % Track quality 100.0 % Test CRC ECEBC5E4 Copy CRC ECEBC5E4 Track not present in AccurateRip database Copy OK

Track 8

Filename D:\RG\2009 - Hachiko- A Dog's Story Soundtrack (flac)\08. Treats From Cate.wav

Peak level 79.0 % Track quality 100.0 % Test CRC F577AF8F Copy CRC F577AF8F Track not present in AccurateRip database Copy OK

Track 9

Filename D:\RG\2009 - Hachiko- A Dog's Story Soundtrack (flac)\09. Parker's Dance Played On Piano.wav

Peak level 87.8 % Track quality 100.0 % Test CRC C91170F1 Copy CRC C91170F1 Track not present in AccurateRip database Copy OK

Track 10

Filename D:\RG\2009 - Hachiko- A Dog's Story Soundtrack (flac)\10. Parker And Hachi Walk To The Station.wav

Peak level 83.9 % Track quality 99.9 % Test CRC 8D35D123 Copy CRC 8D35D123 Track not present in AccurateRip database Copy OK

Track 11

Filename D:\RG\2009 - Hachiko- A Dog's Story Soundtrack (flac)\11. Baby.wav

Peak level 81.5 % Track quality 99.8 % Test CRC 68D41F23 Copy CRC 68D41F23 Track not present in AccurateRip database Copy OK

Track 12

Filename D:\RG\2009 - Hachiko- A Dog's Story Soundtrack (flac)\12. Marriage Bath.wav

Peak level 68.3 % Track quality 100.0 % Test CRC 927FC38A Copy CRC 927FC38A Track not present in AccurateRip database Copy OK

Track 13

Filename D:\RG\2009 - Hachiko- A Dog's Story Soundtrack (flac)\13. Fetch.wav

Peak level 86.5 % Track quality 100.0 % Test CRC 57959193 Copy CRC 57959193 Track not present in AccurateRip database Copy OK

Track 14

Filename D:\RG\2009 - Hachiko- A Dog's Story Soundtrack (flac)\14. To Train Together.wav

Peak level 84.9 % Track quality 100.0 % Test CRC 05004643 Copy CRC 05004643 Track not present in AccurateRip database Copy OK

Track 15

Filename D:\RG\2009 - Hachiko- A Dog's Story Soundtrack (flac)\15. Packing Boxes.wav

Peak level 69.3 % Track quality 100.0 % Test CRC 4569A13C Copy CRC 4569A13C Track not present in AccurateRip database Copy OK

Track 16

Filename D:\RG\2009 - Hachiko- A Dog's Story Soundtrack (flac)\16. Parker And Hachi.wav

Peak level 88.8 % Track quality 100.0 % Test CRC DAEFC31D Copy CRC DAEFC31D Track not present in AccurateRip database Copy OK

Track 17

Filename D:\RG\2009 - Hachiko- A Dog's Story Soundtrack (flac)\17. Hachiko Runs Away.wav

Peak level 85.5 % Track quality 99.9 % Test CRC 8E733313 Copy CRC 8E733313 Track not present in AccurateRip database Copy OK

Track 18

Filename D:\RG\2009 - Hachiko- A Dog's Story Soundtrack (flac)\18. Memory Of The Storm.wav

Peak level 83.8 % Track quality 100.0 % Test CRC 4295B387 Copy CRC 4295B387 Track not present in AccurateRip database Copy OK

Track 19

Filename D:\RG\2009 - Hachiko- A Dog's Story Soundtrack (flac)\19. Hachi's Waiting For Parker Again.wav

Peak level 74.0 % Track quality 100.0 % Test CRC 0E2B713A Copy CRC 0E2B713A Track not present in AccurateRip database Copy OK

Track 20

Filename D:\RG\2009 - Hachiko- A Dog's Story Soundtrack (flac)\20. Hachi's Last Trip To The Station.wav

Peak level 73.8 % Track quality 100.0 % Test CRC C24071DE Copy CRC C24071DE Track not present in AccurateRip database Copy OK

Track 21

Filename D:\RG\2009 - Hachiko- A Dog's Story Soundtrack (flac)\21. Goodbye.wav

Peak level 76.1 % Track quality 99.9 % Test CRC A84DEA6E Copy CRC A84DEA6E Track not present in AccurateRip database Copy OK

Track 22

Filename D:\RG\2009 - Hachiko- A Dog's Story Soundtrack (flac)\22. Hachi, Parker And Cate & Memories.wav

Peak level 87.5 % Track quality 100.0 % Test CRC 684347EE Copy CRC 684347EE Track not present in AccurateRip database Copy OK

Track 23

Filename D:\RG\2009 - Hachiko- A Dog's Story Soundtrack (flac)\23. Hachi's Voice (version 1).wav

Peak level 94.7 % Track quality 100.0 % Test CRC 57372984 Copy CRC 57372984 Track not present in AccurateRip database Copy OK

Track 24

Filename D:\RG\2009 - Hachiko- A Dog's Story Soundtrack (flac)\24. Hachi's Voice (version 2).wav

Peak level 100.0 % Track quality 100.0 % Test CRC AC958549 Copy CRC AC958549 Track not present in AccurateRip database Copy OK

Track 25

Filename D:\RG\2009 - Hachiko- A Dog's Story Soundtrack (flac)\25. Hachi's Voice (version 3).wav

Peak level 80.9 % Track quality 100.0 % Test CRC 0D8FCD87 Copy CRC 0D8FCD87 Track not present in AccurateRip database Copy OK

Track 26

Filename D:\RG\2009 - Hachiko- A Dog's Story Soundtrack (flac)\26. Hachi's Voice (version 4).wav

Peak level 100.0 % Track quality 98.8 % Test CRC 45576905 Copy CRC 45576905 Track not present in AccurateRip database Copy OK

None of the tracks are present in the AccurateRip database

No errors occurred

End of status report


Трекер:  [ 19-Дек-2010 14:50 ]

  

Скачать .torrent

Размер .torrent файла 21 KB


Размер: 241 MB
Хэш (hash) релиза: b349d9360e2ecec48fc08d9f88ffef815faaa965

Торренты, похожие на Хатико: История собаки скачать торрент

Форум Название Автор Размер S L Добавлен
Саундтреки к фильмам и мультфильмам (mp3) ·· (Score) Хатико: История собаки (Самый верный друг) / Hachiko: A Dog's Story (by Jan A.P. Kaczmarek) - 2009, MP3, 320 kbps Phoenix 136901362131 MB 0 0 1292265001

21:30

13-Дек-10

bot

Топик был перенесен в форум Саундтреки к фильмам и мультфильмам (lossless)

Перенес AqvaGen

Хотите добавить комментарий к записи скачать торрент Хатико: История собаки

!Обратная связь