Скачать через торрент музыку House M.D. Доктор Хаус - 2007, FLAC бесплатно без регистрации torrent

Статистика раздачи
Размер:  340 MB   |    Зарегистрирован:  7 лет 10 месяцев   |    .torrent скачан:  95 раз   |   
Раздают:  1  
   
загрузка...
 
Автор Сообщение

AqvaGen


House M.D. / Доктор Хаус
Жанр: Soundtrack
Год выпуска диска: 2007
Производитель диска: США | USA
Аудио кодек: FLAC
Тип рипа: tracks+.cue
Битрейт аудио: lossless
Продолжительность: 53:58
Трэклист:
01 - Massive Attack - Teardrop (Theme Song)
02 - Gomez - See The World
03 - Michael Penn - Walter Reed
04 - Elvis Costello - Beautiful
05 - Sarah McLachlan - Dear God
06 - Joe Cocker - Feelin' Alright
07 - Ben Harper - Waiting On An Angel
08 - Jon Cleary And The Absolute Monster Gentlemen - Got To Be More Careful
09 - Josh Rouse - God, Please Let Me Go Back
10 - Lucinda Williams - Are You Alright
11 - Josh Ritter - Good Man
12 - Band From TV - You Can't Always Get What You Want
 
Exact Audio Copy V0.99 prebeta 5 from 4. May 2009

EAC extraction logfile from 8. January 2010, 0:09

Various / House: Original TV Soundtrack

Used drive : PIONEER DVDRW DVR-K17B Adapter: 1 ID: 0

Read mode : SecureUtilize accurate stream : YesDefeat audio cache : YesMake use of C2 pointers : No

Read offset correction : 48Overread into Lead-In and Lead-Out : NoFill up missing offset samples with silence : YesDelete leading and trailing silent blocks : NoNull samples used in CRC calculations : YesUsed interface : Native Win32 interface for Win NT & 2000Gap handling : Appended to previous track

Used output format : User Defined EncoderSelected bitrate : 128 kBit/sQuality : HighAdd ID3 tag : NoCommand line compressor : C:\Program Files\Exact Audio Copy\Flac\flac.exeAdditional command line options : -V -8 -T "artist=%a" -T "title=%t" -T "album=%g" -T "date=%y" -T "tracknumber=%n" -T "genre=%m" %s

TOC of the extracted CD

Track | Start | Length | Start sector | End sector --------------------------------------------------------- 1 | 0:00.00 | 5:31.10 | 0 | 24834 2 | 5:31.10 | 4:04.63 | 24835 | 43197 3 | 9:35.73 | 3:41.64 | 43198 | 59836 4 | 13:17.62 | 3:51.07 | 59837 | 77168 5 | 17:08.69 | 3:55.68 | 77169 | 94861 6 | 21:04.62 | 4:14.42 | 94862 | 113953 7 | 25:19.29 | 3:55.16 | 113954 | 131594 8 | 29:14.45 | 6:42.60 | 131595 | 161804 9 | 35:57.30 | 4:21.49 | 161805 | 181428 10 | 40:19.04 | 5:21.54 | 181429 | 205557 11 | 45:40.58 | 4:09.21 | 205558 | 224253 12 | 49:50.04 | 4:24.32 | 224254 | 244085

Track 1

Filename House- Original TV Soundtrack - 2007\01 - Massive Attack - Teardrop (Theme Song).wav

Pre-gap length 0:00:02.00

Peak level 95.5 % Track quality 100.0 % Test CRC 846D9D87 Copy CRC 846D9D87 Accurately ripped (confidence 8) [AAD8226A] Copy OK

Track 2

Filename House- Original TV Soundtrack - 2007\02 - Gomez - See The World.wav

Peak level 85.0 % Track quality 100.0 % Test CRC F93935C3 Copy CRC F93935C3 Accurately ripped (confidence 7) [C6B7D873] Copy OK

Track 3

Filename House- Original TV Soundtrack - 2007\03 - Michael Penn - Walter Reed.wav

Pre-gap length 0:00:01.30

Peak level 95.5 % Track quality 100.0 % Test CRC B3817AAB Copy CRC B3817AAB Accurately ripped (confidence 7) [52751F0F] Copy OK

Track 4

Filename House- Original TV Soundtrack - 2007\04 - Elvis Costello - Beautiful.wav

Pre-gap length 0:00:01.73

Peak level 97.7 % Track quality 99.9 % Test CRC 2D99D9D3 Copy CRC 2D99D9D3 Accurately ripped (confidence 7) [3C8D2096] Copy OK

Track 5

Filename House- Original TV Soundtrack - 2007\05 - Sarah McLachlan - Dear God.wav

Pre-gap length 0:00:01.09

Peak level 94.4 % Track quality 100.0 % Test CRC 459D9986 Copy CRC 459D9986 Accurately ripped (confidence 7) [22E20DB6] Copy OK

Track 6

Filename House- Original TV Soundtrack - 2007\06 - Joe Cocker - Feelin' Alright.wav

Pre-gap length 0:00:01.06

Peak level 94.4 % Track quality 100.0 % Test CRC 87A1C518 Copy CRC 87A1C518 Accurately ripped (confidence 7) [8FFEEC77] Copy OK

Track 7

Filename House- Original TV Soundtrack - 2007\07 - Ben Harper - Waiting On An Angel.wav

Pre-gap length 0:00:02.17

Peak level 72.3 % Track quality 100.0 % Test CRC 6ABE27EA Copy CRC 6ABE27EA Accurately ripped (confidence 7) [22CD8B30] Copy OK

Track 8

Filename House- Original TV Soundtrack - 2007\08 - Jon Cleary And The Absolute Monster Gentlemen - Got To Be More Careful.wav

Pre-gap length 0:00:01.86

Peak level 85.0 % Track quality 99.9 % Test CRC 04B8F95D Copy CRC 04B8F95D Accurately ripped (confidence 7) [013AEEC6] Copy OK

Track 9

Filename House- Original TV Soundtrack - 2007\09 - Josh Rouse - God, Please Let Me Go Back.wav

Pre-gap length 0:00:01.38

Peak level 97.7 % Track quality 99.9 % Test CRC FE185DD9 Copy CRC FE185DD9 Accurately ripped (confidence 7) [11A23E59] Copy OK

Track 10

Filename House- Original TV Soundtrack - 2007\10 - Lucinda Williams - Are You Alright .wav

Pre-gap length 0:00:01.92

Peak level 96.6 % Track quality 100.0 % Test CRC 4EC1DC1F Copy CRC 4EC1DC1F Accurately ripped (confidence 7) [8EE34187] Copy OK

Track 11

Filename House- Original TV Soundtrack - 2007\11 - Josh Ritter - Good Man.wav

Pre-gap length 0:00:02.02

Peak level 94.4 % Track quality 100.0 % Test CRC 86F7D10F Copy CRC 86F7D10F Accurately ripped (confidence 7) [75086693] Copy OK

Track 12

Filename House- Original TV Soundtrack - 2007\12 - Band From TV - You Can't Always Get What You Want.wav

Pre-gap length 0:00:01.61

Peak level 82.1 % Track quality 100.0 % Test CRC EF3D0693 Copy CRC EF3D0693 Accurately ripped (confidence 8) [23A7FC60] Copy OK

All tracks accurately ripped

No errors occurred

End of status report
 
REM GENRE SoundtrackREM DATE 2007REM DISCID A50CB60CREM COMMENT "ExactAudioCopy v0.99pb5"FILE "01 - Massive Attack - Teardrop (Theme Song).wav" WAVE TRACK 01 AUDIO INDEX 01 00:00:00FILE "02 - Gomez - See The World.wav" WAVE TRACK 02 AUDIO INDEX 01 00:00:00 TRACK 03 AUDIO INDEX 00 04:03:40FILE "03 - Michael Penn - Walter Reed.wav" WAVE INDEX 01 00:00:00 TRACK 04 AUDIO INDEX 00 03:40:09FILE "04 - Elvis Costello - Beautiful.wav" WAVE INDEX 01 00:00:00 TRACK 05 AUDIO INDEX 00 03:50:00FILE "05 - Sarah McLachlan - Dear God.wav" WAVE INDEX 01 00:00:00 TRACK 06 AUDIO INDEX 00 03:54:63FILE "06 - Joe Cocker - Feelin' Alright.wav" WAVE INDEX 01 00:00:00 TRACK 07 AUDIO INDEX 00 04:12:29FILE "07 - Ben Harper - Waiting On An Angel.wav" WAVE INDEX 01 00:00:00 TRACK 08 AUDIO INDEX 00 03:53:26FILE "08 - Jon Cleary And The Absolute Monster Gentlemen - Got To Be More Careful.wav" WAVE INDEX 01 00:00:00 TRACK 09 AUDIO INDEX 00 06:41:31FILE "09 - Josh Rouse - God, Please Let Me Go Back.wav" WAVE INDEX 01 00:00:00 TRACK 10 AUDIO INDEX 00 04:19:55FILE "10 - Lucinda Williams - Are You Alright .wav" WAVE INDEX 01 00:00:00 TRACK 11 AUDIO INDEX 00 05:19:52FILE "11 - Josh Ritter - Good Man.wav" WAVE INDEX 01 00:00:00 TRACK 12 AUDIO INDEX 00 04:07:50FILE "12 - Band From TV - You Can't Always Get What You Want.wav" WAVE INDEX 01 00:00:00


Трекер:  [ 19-Дек-2010 14:48 ]

  

Скачать .torrent

Размер .torrent файла 14 KB


Размер: 340 MB
Хэш (hash) релиза: 5fedb55d3fc7844f985750a893f4a0baf8784919

bot

Топик был перенесен в форум Саундтреки к фильмам и мультфильмам (lossless)

Перенес AqvaGen

Хотите добавить комментарий к записи скачать торрент House M.D. Доктор Хаус - 2007, FLAC

!Обратная связь