Скачать через торрент музыку VA - RocknRolla Рок-н-рольщик, 2008, FLAC бесплатно без регистрации torrent

Статистика раздачи
Размер:  343 MB   |    Зарегистрирован:  7 лет 4 месяца   |    .torrent скачан:  95 раз   |   
Раздают:  1  
   
загрузка...
 
Автор Сообщение

Galfimbul

avatar Galfimbul


Various Artists (VA) - RocknRolla


Исполнитель: Various Artists (VA)
Альбом: RocknRolla
Тип релиза: Официальный сборник [Compilation]
Страна: UK
Дата выпуска: 1. September 2008
Жанр: Rock, Soundtrack
Формат: FLAC (tracks+.cue)
Битрейт: lossless
Продолжительность: 00:54:32
Источник: what.cd
Треклист:
01. Various Artists / RocknRolla - "People Ask The Question" [00:00:39]
02. Black Strobe / RocknRolla - I'm A Man [00:04:33]
03. The Sonics / RocknRolla - Have Love Will Travel [00:02:36]
04. Various Artists / RocknRolla - "No School Like The Old School" [00:00:25]
05. The Clash / RocknRolla - Bankrobber [00:04:32]
06. Kim Fowley / RocknRolla - The Trip [00:01:56]
07. Various Artists / RocknRolla - "Slap Him!" [00:00:07]
08. Steve Isles / RocknRolla - Ruskies [00:01:07]
09. War / RocknRolla - Outlaw [00:05:02]
10. Flash And The Pan / RocknRolla - Waiting For A Train [00:03:41]
11. Various Artists / RocknRolla - "Junkies" [00:00:06]
12. The Subways / RocknRolla - Rock & Roll Queen [00:02:50]
13. Lou Reed / RocknRolla - The Gun [00:03:38]
14. The Hives / RocknRolla - The Stomp [00:01:54]
15. The Scientists / RocknRolla - We Had Love [00:04:47]
16. Various Artists / RocknRolla - "Sausage & Beans" [00:00:18]
17. The Beat / RocknRolla - Mirror In The Bathroom [00:03:08]
18. Wanda Jackson / RocknRolla - Funnel Of Love [00:02:07]
19. 22-20s / RocknRolla - Such A Fool [00:03:53]
20. Ex-Сектор Газа / RocknRolla - Dopilsya [00:04:02]
21. Miguelito Valdes / RocknRolla - Negra Leono [00:02:58]
 
Exact Audio Copy V0.99 prebeta 4 from 23. January 2008

EAC extraction logfile from 17. February 2009, 23:54

- / RocknRolla OST

Used drive : SlimtypeDVDRW SSM-8515S Adapter: 1 ID: 0

Read mode : SecureUtilize accurate stream : YesDefeat audio cache : YesMake use of C2 pointers : No

Read offset correction : 594Overread into Lead-In and Lead-Out : NoFill up missing offset samples with silence : YesDelete leading and trailing silent blocks : NoNull samples used in CRC calculations : YesUsed interface : Native Win32 interface for Win NT & 2000Gap handling : Appended to previous track

Used output format : User Defined EncoderSelected bitrate : 768 kBit/sQuality : HighAdd ID3 tag : NoCommand line compressor : C:\Program Files\FLAC\flac.exeAdditional command line options : -V -8 -T "artist=%a" -T "title=%t" -T "album=%g" -T "date=%y" -T "tracknumber=%n" -T "genre=%m" %s

TOC of the extracted CD

Track | Start | Length | Start sector | End sector --------------------------------------------------------- 1 | 0:00.00 | 0:39.47 | 0 | 2971 2 | 0:39.47 | 4:33.72 | 2972 | 23518 3 | 5:13.44 | 2:36.69 | 23519 | 35287 4 | 7:50.38 | 0:25.40 | 35288 | 37202 5 | 8:16.03 | 4:32.23 | 37203 | 57625 6 | 12:48.26 | 1:56.66 | 57626 | 66391 7 | 14:45.17 | 0:07.67 | 66392 | 66983 8 | 14:53.09 | 1:07.70 | 66984 | 72078 9 | 16:01.04 | 5:02.31 | 72079 | 94759 10 | 21:03.35 | 3:41.72 | 94760 | 111406 11 | 24:45.32 | 0:06.17 | 111407 | 111873 12 | 24:51.49 | 2:50.73 | 111874 | 124696 13 | 27:42.47 | 3:38.39 | 124697 | 141085 14 | 31:21.11 | 1:54.50 | 141086 | 149685 15 | 33:15.61 | 4:47.56 | 149686 | 171266 16 | 38:03.42 | 0:18.56 | 171267 | 172672 17 | 38:22.23 | 3:08.48 | 172673 | 186820 18 | 41:30.71 | 2:07.21 | 186821 | 196366 19 | 43:38.17 | 3:53.04 | 196367 | 213845 20 | 47:31.21 | 4:02.53 | 213846 | 232048 21 | 51:33.74 | 2:58.50 | 232049 | 245448

Track 1

Filename C:\Users\Hovborg\Desktop\FLAC\\RocknRolla OST\01 - Track01.wav

Pre-gap length 0:00:02.00

Peak level 76.6 % Track quality 100.0 % Test CRC D24297D7 Copy CRC D24297D7 Track not present in AccurateRip database Copy OK

Track 2

Filename C:\Users\Hovborg\Desktop\FLAC\\RocknRolla OST\02 - Track02.wav

Peak level 91.7 % Track quality 99.9 % Test CRC B7BCE91F Copy CRC B7BCE91F Track not present in AccurateRip database Copy OK

Track 3

Filename C:\Users\Hovborg\Desktop\FLAC\\RocknRolla OST\03 - Track03.wav

Pre-gap length 0:00:00.41

Peak level 93.1 % Track quality 100.0 % Test CRC 08B97027 Copy CRC 08B97027 Track not present in AccurateRip database Copy OK

Track 4

Filename C:\Users\Hovborg\Desktop\FLAC\\RocknRolla OST\04 - Track04.wav

Peak level 100.0 % Track quality 100.0 % Test CRC 42363141 Copy CRC 42363141 Track not present in AccurateRip database Copy OK

Track 5

Filename C:\Users\Hovborg\Desktop\FLAC\\RocknRolla OST\05 - Track05.wav

Peak level 100.0 % Track quality 99.9 % Test CRC C633ED34 Copy CRC C633ED34 Track not present in AccurateRip database Copy OK

Track 6

Filename C:\Users\Hovborg\Desktop\FLAC\\RocknRolla OST\06 - Track06.wav

Pre-gap length 0:00:00.41

Peak level 100.0 % Track quality 99.9 % Test CRC E5F657A8 Copy CRC E5F657A8 Track not present in AccurateRip database Copy OK

Track 7

Filename C:\Users\Hovborg\Desktop\FLAC\\RocknRolla OST\07 - Track07.wav

Peak level 100.0 % Track quality 100.0 % Test CRC 132F32C0 Copy CRC 132F32C0 Track not present in AccurateRip database Copy OK

Track 8

Filename C:\Users\Hovborg\Desktop\FLAC\\RocknRolla OST\08 - Track08.wav

Peak level 57.8 % Track quality 100.0 % Test CRC 6444FE66 Copy CRC 6444FE66 Track not present in AccurateRip database Copy OK

Track 9

Filename C:\Users\Hovborg\Desktop\FLAC\\RocknRolla OST\09 - Track09.wav

Pre-gap length 0:00:00.34

Peak level 100.0 % Track quality 100.0 % Test CRC 5B553F03 Copy CRC 5B553F03 Track not present in AccurateRip database Copy OK

Track 10

Filename C:\Users\Hovborg\Desktop\FLAC\\RocknRolla OST\10 - Track10.wav

Pre-gap length 0:00:00.41

Peak level 69.2 % Track quality 100.0 % Test CRC A642ED7B Copy CRC A642ED7B Track not present in AccurateRip database Copy OK

Track 11

Filename C:\Users\Hovborg\Desktop\FLAC\\RocknRolla OST\11 - Track11.wav

Peak level 69.7 % Track quality 100.0 % Test CRC 68302841 Copy CRC 68302841 Track not present in AccurateRip database Copy OK

Track 12

Filename C:\Users\Hovborg\Desktop\FLAC\\RocknRolla OST\12 - Track12.wav

Peak level 93.8 % Track quality 100.0 % Test CRC B95A782D Copy CRC B95A782D Track not present in AccurateRip database Copy OK

Track 13

Filename C:\Users\Hovborg\Desktop\FLAC\\RocknRolla OST\13 - Track13.wav

Pre-gap length 0:00:00.32

Peak level 100.0 % Track quality 100.0 % Test CRC F7E7E720 Copy CRC F7E7E720 Track not present in AccurateRip database Copy OK

Track 14

Filename C:\Users\Hovborg\Desktop\FLAC\\RocknRolla OST\14 - Track14.wav

Pre-gap length 0:00:00.02

Peak level 100.0 % Track quality 100.0 % Test CRC 530C809F Copy CRC 530C809F Track not present in AccurateRip database Copy OK

Track 15

Filename C:\Users\Hovborg\Desktop\FLAC\\RocknRolla OST\15 - Track15.wav

Peak level 100.0 % Track quality 100.0 % Test CRC CEE7869B Copy CRC CEE7869B Track not present in AccurateRip database Copy OK

Track 16

Filename C:\Users\Hovborg\Desktop\FLAC\\RocknRolla OST\16 - Track16.wav

Peak level 92.9 % Track quality 100.0 % Test CRC 2176CA75 Copy CRC 2176CA75 Track not present in AccurateRip database Copy OK

Track 17

Filename C:\Users\Hovborg\Desktop\FLAC\\RocknRolla OST\17 - Track17.wav

Peak level 97.0 % Track quality 99.9 % Test CRC DA3A4907 Copy CRC DA3A4907 Track not present in AccurateRip database Copy OK

Track 18

Filename C:\Users\Hovborg\Desktop\FLAC\\RocknRolla OST\18 - Track18.wav

Peak level 100.0 % Track quality 100.0 % Test CRC 3FC1D808 Copy CRC 3FC1D808 Track not present in AccurateRip database Copy OK

Track 19

Filename C:\Users\Hovborg\Desktop\FLAC\\RocknRolla OST\19 - Track19.wav

Peak level 100.0 % Track quality 100.0 % Test CRC E8D50DFC Copy CRC E8D50DFC Track not present in AccurateRip database Copy OK

Track 20

Filename C:\Users\Hovborg\Desktop\FLAC\\RocknRolla OST\20 - Track20.wav

Pre-gap length 0:00:00.38

Peak level 100.0 % Track quality 100.0 % Test CRC C5753B7F Copy CRC C5753B7F Track not present in AccurateRip database Copy OK

Track 21

Filename C:\Users\Hovborg\Desktop\FLAC\\RocknRolla OST\21 - Track21.wav

Peak level 100.0 % Track quality 99.9 % Test CRC 8D749AB2 Copy CRC 8D749AB2 Track not present in AccurateRip database Copy OK

None of the tracks are present in the AccurateRip database

No errors occurred

End of status report


Трекер:  [ 07-Июл-2011 22:31 ]

  

Скачать .torrent

Размер .torrent файла 9 KB


Размер: 343 MB
Хэш (hash) релиза: 99dda03c2845427373349253ca03690ede95e24d

Еще никто не оставлял запись к записи скачать торрент VA - RocknRolla Рок-н-рольщик, 2008, FLAC . Будь первым!

!Обратная связь