Скачать через торрент музыку Fight Club: Original Motion Picture Score + Outtakes Бойцовский клуб бесплатно без регистрации torrent

Статистика раздачи
Размер:  448 MB   |    Зарегистрирован:  7 лет 7 месяцев   |    .torrent скачан:  63 раза   |   
Раздают:  1  
   
загрузка...
 
Автор Сообщение

FRANKS

avatar FRANKS


The Dust Brothers - Fight Club - Original Motion Picture Score + VA - Outtakes
Лейбл: Restless Records
# каталога: 7 73715-2
Формат: CD, Album, Digipak
Страна: US
Выпущен: 27 Jul 1999
Жанр: Electronic, Stage & Screen
Стиль: Score, Trip Hop, Ambient
Аудио кодек: FLAC
Тип рипа: tracks+.cue
Битрейт аудио: lossless
Продолжительность: 63 мин
Трэклист:
01. Who Is Tyler Durden? (5:03)
02. Homework (4:37)
03. What Is Fight Club? (4:43)
04. Single Serving Jack (4:14)
05. Corporate World (2:42)
06. Psycho Boy Jack (2:57)
07. Hessel, Raymond K. (2:49)
08. Medula Oblongata (5:59)
09. Jack's Smirking Revenge (3:58)
10. Stealing Fat (2:21)
11. Chemical Burn (3:35)
12. Marla (4:22)
13. Commissioner Castration (3:06)
14. Space Monkeys (3:24)
15. Finding The Bomb (6:45)
16. This Is Your Life (3:31)

*outtakes/unicluded:
01. Vas - Svarga
02. Tom Waits - Goin' Out West
03. The Pixies - Where Is My Mind
*треки вырезаны из "Offerings", "Bone Machine", "Death To The Pixies 1987-1991".

 
EAC extraction logfile from 2. June 2007, 21:59 for CDThe Dust Brothers / Fight Club Soundtrack

Used drive : TSSTcorpCD/DVDW SH-W162L Adapter: 4 ID: 0Read mode : Secure with NO C2, accurate stream, disable cacheRead offset correction : 6Overread into Lead-In and Lead-Out : No

Used output format : C:\Program Files\FLAC\flac.exe (User Defined Encoder) 320 kBit/s Additional command line options : -V -8 -T "artist=%a" -T "title=%t" -T "album=%g" -T "date=%y" -T "tracknumber=%n" -T "genre=%m" %s

Other options : Fill up missing offset samples with silence : Yes Delete leading and trailing silent blocks : No Native Win32 interface for Win NT & 2000

Track 1 Filename F:\Lossless\Hollyweird\The Dust Brothers - Fight Club Soundtrack (1999) [FLAC]\01 - Who Is Tyler Durden .wav

Pre-gap length 0:00:02.00

Peak level 99.0 % Track quality 99.9 % Test CRC B13D3C55 Copy CRC B13D3C55 Copy OK

Track 2 Filename F:\Lossless\Hollyweird\The Dust Brothers - Fight Club Soundtrack (1999) [FLAC]\02 - Homework.wav

Peak level 99.2 % Track quality 99.9 % Test CRC AB04650C Copy CRC AB04650C Copy OK

Track 3 Filename F:\Lossless\Hollyweird\The Dust Brothers - Fight Club Soundtrack (1999) [FLAC]\03 - What Is Fight Club .wav

Peak level 99.1 % Track quality 100.0 % Test CRC 888ED973 Copy CRC 888ED973 Copy OK

Track 4 Filename F:\Lossless\Hollyweird\The Dust Brothers - Fight Club Soundtrack (1999) [FLAC]\04 - Single Serving Jack.wav

Peak level 99.1 % Track quality 100.0 % Test CRC 34432C99 Copy CRC 34432C99 Copy OK

Track 5 Filename F:\Lossless\Hollyweird\The Dust Brothers - Fight Club Soundtrack (1999) [FLAC]\05 - Corporate World.wav

Peak level 99.0 % Track quality 100.0 % Test CRC 880DAB46 Copy CRC 880DAB46 Copy OK

Track 6 Filename F:\Lossless\Hollyweird\The Dust Brothers - Fight Club Soundtrack (1999) [FLAC]\06 - Psycho Boy Jack.wav

Peak level 99.1 % Track quality 100.0 % Test CRC A7AF4DEC Copy CRC A7AF4DEC Copy OK

Track 7 Filename F:\Lossless\Hollyweird\The Dust Brothers - Fight Club Soundtrack (1999) [FLAC]\07 - Hessel, Raymond K..wav

Peak level 99.0 % Track quality 99.9 % Test CRC A375162D Copy CRC A375162D Copy OK

Track 8 Filename F:\Lossless\Hollyweird\The Dust Brothers - Fight Club Soundtrack (1999) [FLAC]\08 - Medula Oblongata.wav

Peak level 99.0 % Track quality 100.0 % Test CRC B5AB9229 Copy CRC B5AB9229 Copy OK

Track 9 Filename F:\Lossless\Hollyweird\The Dust Brothers - Fight Club Soundtrack (1999) [FLAC]\09 - Jack's Smirking Revenge.wav

Peak level 99.0 % Track quality 100.0 % Test CRC A435ADF1 Copy CRC A435ADF1 Copy OK

Track 10 Filename F:\Lossless\Hollyweird\The Dust Brothers - Fight Club Soundtrack (1999) [FLAC]\10 - Stealing Fat.wav

Peak level 99.1 % Track quality 99.9 % Test CRC E6BAFD9A Copy CRC E6BAFD9A Copy OK

Track 11 Filename F:\Lossless\Hollyweird\The Dust Brothers - Fight Club Soundtrack (1999) [FLAC]\11 - Chemical Burn.wav

Peak level 99.0 % Track quality 100.0 % Test CRC CDAA23DC Copy CRC CDAA23DC Copy OK

Track 12 Filename F:\Lossless\Hollyweird\The Dust Brothers - Fight Club Soundtrack (1999) [FLAC]\12 - Marla.wav

Peak level 99.0 % Track quality 100.0 % Test CRC 0DA9D8FF Copy CRC 0DA9D8FF Copy OK

Track 13 Filename F:\Lossless\Hollyweird\The Dust Brothers - Fight Club Soundtrack (1999) [FLAC]\13 - Commissioner Castration.wav

Peak level 99.1 % Track quality 100.0 % Test CRC 31753FC3 Copy CRC 31753FC3 Copy OK

Track 14 Filename F:\Lossless\Hollyweird\The Dust Brothers - Fight Club Soundtrack (1999) [FLAC]\14 - Space Monkeys.wav

Peak level 99.0 % Track quality 100.0 % Test CRC 0D3DCC2F Copy CRC 0D3DCC2F Copy OK

Track 15 Filename F:\Lossless\Hollyweird\The Dust Brothers - Fight Club Soundtrack (1999) [FLAC]\15 - Finding The Bomb.wav

Peak level 99.1 % Track quality 100.0 % Test CRC A4B1CADC Copy CRC A4B1CADC Copy OK

Track 16 Filename F:\Lossless\Hollyweird\The Dust Brothers - Fight Club Soundtrack (1999) [FLAC]\16 - This Is Your Life (featuring Tyler Durden).wav

Peak level 99.0 % Track quality 100.0 % Test CRC 82B071A3 Copy CRC 82B071A3 Copy OK

No errors occured

End of status report
 
AUDIOCHECKER v2.0 beta (build 457) - by Dester - opdester@freemail.hu~~~~~~~~~~~~~~~~~~~~~~~~~~~~~~~~~~-=== DO NOT EDIT THIS FILE! ===-

Path: ...\The Dust Brothers - Fight Club Soundtrack (1999) [FLAC]

1 -=- 01 - Who Is Tyler Durden .flac -=- CDDA (100%)2 -=- 05 - Corporate World.flac -=- CDDA (99%)3 -=- 16 - This Is Your Life (featuring Tyler Durden).flac -=- CDDA (100%)

Summary 99.67% CDDA

91389940



Трекер:  [ 30-Дек-2010 22:57 ]

  

Скачать .torrent

Размер .torrent файла 20 KB


Размер: 448 MB
Хэш (hash) релиза: 25f6951f315926e5b43c892299760651f5392196

bot

Топик был перенесен в форум Саундтреки к фильмам и мультфильмам (lossless)

Перенес FRANKS

Хотите добавить комментарий к записи скачать торрент Fight Club: Original Motion Picture Score + Outtakes Бойцовский клуб

!Обратная связь