Скачать через торрент музыку Берлин зовет Berlin Calling бесплатно без регистрации torrent

Статистика раздачи
Размер:  372 MB   |    Зарегистрирован:  7 лет 10 месяцев   |    .torrent скачан:  96 раз   |   
Раздают:  1  
   
загрузка...
 
Автор Сообщение

AqvaGen


Берлин зовет / Berlin Calling
Paul Kalkbrenner, Sascha Funke

Жанр: Soundtrack, Electronic
Год выпуска диска: 2008
Производитель диска: Bpitch Control
Аудио кодек: FLAC
Тип рипа: tracks+.cue
Битрейт аудио: lossless
Продолжительность: 01:11:32
Трэклист:
01. Paul Kalkbrenner - Aaron [06:00]
02. Paul Kalkbrenner - Queer Fellow [04:16]
03. Paul Kalkbrenner - Azure [06:11]
04. Paul Kalkbrenner - Sky And Sand [03:59]
05. Paul Kalkbrenner - Square 1 [06:43]
06. Paul Kalkbrenner - Altes Kamuffel (Special Berlin Calling Edit) [04:35]
07. Paul Kalkbrenner - Torted [05:29]
08. Sascha Funke - Mango (Special Berlin Calling Edit) [04:32]
09. Paul Kalkbrenner - QSA (Exclusive CD Track) [05:25]
10. Paul Kalkbrenner - Castenets (Special Berlin Calling Edit) [05:03]
11. Paul Kalkbrenner - Bengang [05:37]
12. Paul Kalkbrenner - Peet [03:33]
13. Paul Kalkbrenner - Train (Exclusive CD Track) [02:48]
14. Paul Kalkbrenner - Gebrünn Gebrünn (Special Berlin Calling Edit) [07:14]
 
Exact Audio Copy V0.99 prebeta 5 from 4. May 2009

EAC extraction logfile from 22. November 2009, 15:07

Various / Berlin Calling

Used drive : PIONEER DVD-RW DVR-109 Adapter: 0 ID: 0

Read mode : SecureUtilize accurate stream : YesDefeat audio cache : YesMake use of C2 pointers : No

Read offset correction : 48Overread into Lead-In and Lead-Out : NoFill up missing offset samples with silence : YesDelete leading and trailing silent blocks : NoNull samples used in CRC calculations : YesUsed interface : Native Win32 interface for Win NT & 2000Gap handling : Appended to previous track

Used output format : User Defined EncoderSelected bitrate : 320 kBit/sQuality : HighAdd ID3 tag : NoCommand line compressor : C:\Programme\Codecs\FLAC\bin\flac.exeAdditional command line options : -5 -V -T "Artist=%a" -T "Title=%t" -T "Album=%g" -T "Date=%y" -T "Tracknumber=%n" -T "Genre=%m" %s -o %d

TOC of the extracted CD

Track | Start | Length | Start sector | End sector --------------------------------------------------------- 1 | 0:00.00 | 6:00.63 | 0 | 27062 2 | 6:00.63 | 4:16.68 | 27063 | 46330 3 | 10:17.56 | 6:11.12 | 46331 | 74167 4 | 16:28.68 | 3:59.25 | 74168 | 92117 5 | 20:28.18 | 6:43.11 | 92118 | 122353 6 | 27:11.29 | 4:35.19 | 122354 | 142997 7 | 31:46.48 | 5:29.68 | 142998 | 167740 8 | 37:16.41 | 4:32.49 | 167741 | 188189 9 | 41:49.15 | 5:25.57 | 188190 | 212621 10 | 47:14.72 | 5:03.72 | 212622 | 235418 11 | 52:18.69 | 5:37.05 | 235419 | 260698 12 | 57:55.74 | 3:33.45 | 260699 | 276718 13 | 61:29.44 | 2:48.31 | 276719 | 289349 14 | 64:18.00 | 7:14.01 | 289350 | 321900

Track 1

Filename D:\music\2008 - Berlin Calling\01 - Paul Kalkbrenner - Aaron.wav

Pre-gap length 0:00:02.00

Peak level 99.6 % Track quality 100.0 % Test CRC 48BFB210 Copy CRC 48BFB210 Accurately ripped (confidence 12) [594DB2F6] Copy OK

Track 2

Filename D:\music\2008 - Berlin Calling\02 - Paul Kalkbrenner - Queer Fellow.wav

Peak level 88.6 % Track quality 100.0 % Test CRC F360F8C4 Copy CRC F360F8C4 Accurately ripped (confidence 12) [06D2669E] Copy OK

Track 3

Filename D:\music\2008 - Berlin Calling\03 - Paul Kalkbrenner - Azure.wav

Peak level 99.6 % Track quality 100.0 % Test CRC 6ABF102E Copy CRC 6ABF102E Accurately ripped (confidence 12) [0C4D95E3] Copy OK

Track 4

Filename D:\music\2008 - Berlin Calling\04 - Paul Kalkbrenner - Sky And Sand.wav

Peak level 99.7 % Track quality 100.0 % Test CRC B81DEFEC Copy CRC B81DEFEC Accurately ripped (confidence 12) [3BDECF8E] Copy OK

Track 5

Filename D:\music\2008 - Berlin Calling\05 - Paul Kalkbrenner - Square 1.wav

Peak level 99.4 % Track quality 99.9 % Test CRC CE9ABB88 Copy CRC CE9ABB88 Accurately ripped (confidence 12) [E3DE4104] Copy OK

Track 6

Filename D:\music\2008 - Berlin Calling\06 - Paul Kalkbrenner - Altes Kamuffel (Special Berlin Calling Edit).wav

Peak level 99.9 % Track quality 99.9 % Test CRC 3BAB2F5F Copy CRC 3BAB2F5F Accurately ripped (confidence 12) [23652380] Copy OK

Track 7

Filename D:\music\2008 - Berlin Calling\07 - Paul Kalkbrenner - Torted.wav

Peak level 99.6 % Track quality 100.0 % Test CRC D11E420C Copy CRC D11E420C Accurately ripped (confidence 12) [FD927631] Copy OK

Track 8

Filename D:\music\2008 - Berlin Calling\08 - Sascha Funke - Mango (Special Berlin Calling Edit).wav

Peak level 100.0 % Track quality 100.0 % Test CRC B13F179D Copy CRC B13F179D Accurately ripped (confidence 12) [2FEB3333] Copy OK

Track 9

Filename D:\music\2008 - Berlin Calling\09 - Paul Kalkbrenner - QSA (Exclusive CD Track).wav

Peak level 99.8 % Track quality 99.9 % Test CRC 05D624A8 Copy CRC 05D624A8 Accurately ripped (confidence 12) [61A59657] Copy OK

Track 10

Filename D:\music\2008 - Berlin Calling\10 - Paul Kalkbrenner - Castenets (Special Berlin Calling Edit).wav

Peak level 100.0 % Track quality 100.0 % Test CRC 7454D755 Copy CRC 7454D755 Accurately ripped (confidence 12) [ED713379] Copy OK

Track 11

Filename D:\music\2008 - Berlin Calling\11 - Paul Kalkbrenner - Bengang.wav

Peak level 99.7 % Track quality 100.0 % Test CRC BCF11E2E Copy CRC BCF11E2E Accurately ripped (confidence 12) [88A93C06] Copy OK

Track 12

Filename D:\music\2008 - Berlin Calling\12 - Paul Kalkbrenner - Peet.wav

Peak level 99.6 % Track quality 100.0 % Test CRC CF69940E Copy CRC CF69940E Accurately ripped (confidence 12) [4D13C11C] Copy OK

Track 13

Filename D:\music\2008 - Berlin Calling\13 - Paul Kalkbrenner - Train (Exclusive CD Track).wav

Peak level 60.1 % Track quality 100.0 % Test CRC 10BE26A3 Copy CRC 10BE26A3 Accurately ripped (confidence 12) [B1F21D2B] Copy OK

Track 14

Filename D:\music\2008 - Berlin Calling\14 - Paul Kalkbrenner - Gebrьnn Gebrьnn (Special Berlin Calling Edit).wav

Peak level 100.0 % Track quality 99.9 % Test CRC D2A3E947 Copy CRC D2A3E947 Accurately ripped (confidence 12) [15B1F9E9] Copy OK

All tracks accurately ripped

No errors occurred

End of status report


Трекер:  [ 20-Дек-2010 16:12 ]

  

Скачать .torrent

Размер .torrent файла 16 KB


Размер: 372 MB
Хэш (hash) релиза: b9a05c6873e1ad9bbc3e3dbe4245af9f6d91364b

Торренты, похожие на Берлин зовет Berlin Calling скачать торрент

Форум Название Автор Размер S L Добавлен
Саундтреки к фильмам и мультфильмам (mp3) ·· (Soundtrack) Берлин зовет / Berlin Calling (Paul Kalkbrenner) - 2008, MP3 (tracks), 320 kbps Phoenix 190274091181 MB 0 0 1292265052

21:30

13-Дек-10

bot

Топик был перенесен в форум Саундтреки к фильмам и мультфильмам (lossless)

Перенес AqvaGen

Хотите добавить комментарий к записи скачать торрент Берлин зовет Berlin Calling

!Обратная связь