Скачать через торрент музыку Various - The Boat That Rocked Рок-волна - 2009, APE бесплатно без регистрации torrent

Статистика раздачи
Размер:  635 MB   |    Зарегистрирован:  7 лет 11 месяцев   |    .torrent скачан:  45 раз   |   
Раздают:  1  
   
загрузка...
 
Автор Сообщение

AqvaGen


Various - The Boat That Rocked / Рок-волна

Жанр: Soundtrack/Rock
Год выпуска диска: 2009
Производитель диска: "Юниверсал Мьюзик" Россия
Аудио кодек: APE
Тип рипа: image+.cue
Битрейт аудио: lossless
Продолжительность: 1:53:55
Трэклист:

Disc 1
01. Stay With Me Baby - Duffy
02. All Day And All Of The Night - The Kinks
03. Elenore - The Turtles
04. Judy In Disguise (With Glasses) - John Fred & His Playboy Band
05. Dancing In The Street - Martha Reeves And The Vandellas
06. Wouldn't It Be Nice - The Beach Boys
07. Ooo Baby Baby - Smokey Robinson
08. This Guy's In Love With You - Herb Alpert & The Tijuana Brass
09. Crimson And Clover - Tommy James & The Shondells
10. Hi Ho Silver Lining - Jeff Beck
11. I Can See For Miles - The Who
12. With A Girl Like You - The Troggs
13. The Letter - The Box Tops
14. I'm Alive - The Hollies
15. Yesterday Man - Chris Andrews
16. I've Been A Bad Bad Boy - Paul Jones
17. Silence Is Golden - The Tremeloes
18. The End Of The World - Skeeter Davis

Disc 2
01. Friday On My Mind - The Easybeats
02. My Generation - The Who
03. I Feel Free - Cream
04. The Wind Cries Mary - Jimi Hendrix
05. A Whiter Shade Of Pale - Procol Harum
06. These Arms Of Mine - Otis Redding
07. Cleo's Mood - Jr. Walker & The All Stars
08. The Happening - The Supremes
09. She'd Rather Be With Me - The Turtles
10. 98.6 - The Bystanders
11. Sunny Afternoon - The Kinks
12. Father And Son - Cat Stevens
13. Nights In White Satin - Moody Blues
14. You Don't Have To Say You Love Me - Dusty Springfield
15. Stay With Me (Baby) - Lorraine Ellison
16. Hang On Sloopy - The McCoys
17. This Old Heart Of Mine (Is Weak For You) - The Isley Brothers
18. Let's Dance - David Bowie

Доп. информация:
Exact Audio Copy V0.99 prebeta 5 from 4. May 2009

EAC extraction logfile from 1. August 2009, 19:34

Various / The Boat that Rocked

Used drive : Optiarc DVD RW AD-7173S Adapter: 2 ID: 2

Read mode : Secure
Utilize accurate stream : Yes
Defeat audio cache : Yes
Make use of C2 pointers : No

Read offset correction : 48
Overread into Lead-In and Lead-Out : No
Fill up missing offset samples with silence : Yes
Delete leading and trailing silent blocks : No
Null samples used in CRC calculations : No
Used interface : Installed external ASPI interface

Used output format : Internal WAV Routines
Sample format : 44.100 Hz; 16 Bit; Stereo

TOC of the extracted CD

Track | Start | Length | Start sector | End sector
---------------------------------------------------------
1 | 0:00.00 | 3:52.65 | 0 | 17464
2 | 3:52.65 | 2:23.15 | 17465 | 28204
3 | 6:16.05 | 2:30.58 | 28205 | 39512
4 | 8:46.63 | 2:53.57 | 39513 | 52544
5 | 11:40.45 | 2:36.35 | 52545 | 64279
6 | 14:17.05 | 2:23.24 | 64280 | 75028
7 | 16:40.29 | 2:45.05 | 75029 | 87408
8 | 19:25.34 | 4:01.22 | 87409 | 105505
9 | 23:26.56 | 5:24.55 | 105506 | 129860
10 | 28:51.36 | 2:48.67 | 129861 | 142527
11 | 31:40.28 | 4:07.31 | 142528 | 161083
12 | 35:47.59 | 2:07.31 | 161084 | 170639
13 | 37:55.15 | 1:54.15 | 170640 | 179204
14 | 39:49.30 | 2:25.37 | 179205 | 190116
15 | 42:14.67 | 2:32.12 | 190117 | 201528
16 | 44:47.04 | 2:20.67 | 201529 | 212095
17 | 47:07.71 | 3:09.18 | 212096 | 226288
18 | 50:17.14 | 2:39.20 | 226289 | 238233

Range status and errors

Selected range

Filename C:\Documents and Settings\Admin\Мои документы\Мои видеозаписи\Various - The Boat that Rocked.wav

Peak level 100.0 %
Range quality 99.9 %
Copy CRC 0D810D94
Copy OK

No errors occurred

AccurateRip summary

Track 1 accurately ripped (confidence 2) [50DA2238]
Track 2 accurately ripped (confidence 2) [CC315A21]
Track 3 accurately ripped (confidence 2) [DA6CAE79]
Track 4 accurately ripped (confidence 2) [C61505AC]
Track 5 accurately ripped (confidence 2) [40A40EBC]
Track 6 accurately ripped (confidence 2) [FD31B118]
Track 7 accurately ripped (confidence 2) [425DD22B]
Track 8 accurately ripped (confidence 2) [56B94723]
Track 9 accurately ripped (confidence 2) [8D98F5A0]
Track 10 accurately ripped (confidence 2) [AB8637CB]
Track 11 accurately ripped (confidence 2) [81FDA771]
Track 12 accurately ripped (confidence 2) [9A2D6190]
Track 13 accurately ripped (confidence 2) [85DFFE58]
Track 14 accurately ripped (confidence 2) [856A3C20]
Track 15 accurately ripped (confidence 2) [C5AC2EE9]
Track 16 accurately ripped (confidence 2) [B4BE6022]
Track 17 accurately ripped (confidence 2) [BEB75AA7]
Track 18 accurately ripped (confidence 2) [FD80F67F]

All tracks accurately ripped

End of status report
Exact Audio Copy V0.99 prebeta 5 from 4. May 2009

EAC extraction logfile from 1. August 2009, 20:14

Various / The Boat That Rocked - Disc 2

Used drive : Optiarc DVD RW AD-7173S Adapter: 2 ID: 2

Read mode : Secure
Utilize accurate stream : Yes
Defeat audio cache : Yes
Make use of C2 pointers : No

Read offset correction : 48
Overread into Lead-In and Lead-Out : No
Fill up missing offset samples with silence : Yes
Delete leading and trailing silent blocks : No
Null samples used in CRC calculations : No
Used interface : Installed external ASPI interface

Used output format : Internal WAV Routines
Sample format : 44.100 Hz; 16 Bit; Stereo

TOC of the extracted CD

Track | Start | Length | Start sector | End sector
---------------------------------------------------------
1 | 0:00.00 | 2:53.24 | 0 | 12998
2 | 2:53.24 | 3:19.46 | 12999 | 27969
3 | 6:12.70 | 2:54.52 | 27970 | 41071
4 | 9:07.47 | 3:21.49 | 41072 | 56195
5 | 12:29.21 | 4:00.49 | 56196 | 74244
6 | 16:29.70 | 2:33.04 | 74245 | 85723
7 | 19:02.74 | 2:42.63 | 85724 | 97936
8 | 21:45.62 | 2:51.11 | 97937 | 110772
9 | 24:36.73 | 2:21.21 | 110773 | 121368
10 | 26:58.19 | 3:19.63 | 121369 | 136356
11 | 30:18.07 | 3:34.36 | 136357 | 152442
12 | 33:52.43 | 3:42.18 | 152443 | 169110
13 | 37:34.61 | 4:26.18 | 169111 | 189078
14 | 42:01.04 | 2:49.60 | 189079 | 201813
15 | 44:50.64 | 3:33.48 | 201814 | 217836
16 | 48:24.37 | 3:52.66 | 217837 | 235302
17 | 52:17.28 | 2:51.24 | 235303 | 248151
18 | 55:08.52 | 4:06.54 | 248152 | 266655

Range status and errors

Selected range

Filename C:\Documents and Settings\Admin\Мои документы\Мои видеозаписи\Various - The Boat that Rocked\Various - The Boat that Rocked CD 2\Various - The Boat That Rocked - Disc 2.wav

Peak level 100.0 %
Range quality 99.9 %
Copy CRC 481B37F9
Copy OK

No errors occurred

AccurateRip summary

Track 1 accurately ripped (confidence 3) [FA6AA75D]
Track 2 accurately ripped (confidence 3) [0C1C441C]
Track 3 accurately ripped (confidence 3) [3C3CE362]
Track 4 accurately ripped (confidence 3) [7794FDCF]
Track 5 accurately ripped (confidence 3) [6C9570CC]
Track 6 accurately ripped (confidence 3) [636DF118]
Track 7 accurately ripped (confidence 3) [980796CF]
Track 8 accurately ripped (confidence 3) [EA235408]
Track 9 accurately ripped (confidence 3) [FF7C6810]
Track 10 accurately ripped (confidence 3) [95781874]
Track 11 accurately ripped (confidence 3) [DE975D9D]
Track 12 accurately ripped (confidence 3) [0043B753]
Track 13 accurately ripped (confidence 3) [7A974C31]
Track 14 accurately ripped (confidence 3) [D071B8B1]
Track 15 accurately ripped (confidence 3) [5F0F33D8]
Track 16 accurately ripped (confidence 3) [30B457CC]
Track 17 accurately ripped (confidence 3) [20DB644C]
Track 18 accurately ripped (confidence 3) [F0DD5411]

All tracks accurately ripped

End of status report
Диск куплен в сети "Медиа - Маркт", лицензионный с двумя голограммами, однако каждый из двух дисков содержит 3-4 mpeg трека.Скорее всего старость композиций, однако может и наш мастеринг...В общем для желающих приглядеться в папках найдутся спектры.
Качаем говорим спасибо)


Трекер:  [ 20-Дек-2010 16:07 ]

  

Скачать .torrent

Размер .torrent файла 14 KB


Размер: 635 MB
Хэш (hash) релиза: f3c157fec9553f288aeb39aacf8c41a834510de2

bot

Топик был перенесен в форум Саундтреки к фильмам и мультфильмам (lossless)

Перенес AqvaGen

Хотите добавить комментарий к записи скачать торрент Various - The Boat That Rocked Рок-волна - 2009, APE

!Обратная связь