Скачать через торрент музыку The Twilight Saga: Eclipse Сумерки. Сага. Затмение бесплатно без регистрации torrent

Статистика раздачи
Размер:  303 MB   |    Зарегистрирован:  7 лет 4 месяца   |    .torrent скачан:  49 раз   |   
Раздают:  1  
   
загрузка...
 
Автор Сообщение

AqvaGen


Howard Shore - The Twilight Saga: Eclipse / Сумерки. Сага. Затмение

Жанр: Score
Год выпуска диска: 2010
Производитель диска: EU
Аудио кодек: FLAC
Тип рипа: image+.cue
Битрейт аудио: lossless
Продолжительность: 61:59
Лейбл, каталог #: WEA, 5052498156528
EAN/UPC: 5052498156528

Трэклист:
01. Riley [0:01:53.72]
02. Compromise / Bella’s Theme [0:02:44.45]
03. Bella’s Truck / Florida [0:01:50.28]
04. Victoria [0:02:18.80]
05. Imprinting [0:02:07.62]
06. The Cullens Plan [0:02:18.98]
07. First Kiss [0:02:00.09]
08. Rosalie [0:04:09.24]
09. Decisions, Decisions… [0:01:50.12]
10. They’re Coming Here [0:04:01.53]
11. Jacob Black [0:02:13.25]
12. Jasper [0:03:56.74]
13. Wolf Scent [0:02:19.46]
14. Mountain Peak [0:05:02.98]
15. The Kiss [0:03:45.74]
16. The Battle / Victoria Vs. Edward [0:06:40.06]
17. Jane [0:03:12.56]
18. As Easy As Breathing [0:03:21.41]
19. Wedding Plans [0:06:12.12]
 
Exact Audio Copy V0.99 prebeta 5 from 4. May 2009

EAC extraction logfile from 2. July 2010, 16:02

Howard Shore / The Twilight Saga Eclipse - Score

Used drive : TSSTcorpCD/DVDW SH-S182M Adapter: 0 ID: 0

Read mode : SecureUtilize accurate stream : YesDefeat audio cache : YesMake use of C2 pointers : No

Read offset correction : 6Overread into Lead-In and Lead-Out : NoFill up missing offset samples with silence : YesDelete leading and trailing silent blocks : NoNull samples used in CRC calculations : YesUsed interface : Installed external ASPI interface

Used output format : User Defined EncoderSelected bitrate : 768 kBit/sQuality : HighAdd ID3 tag : NoCommand line compressor : C:\Program Files\Exact Audio Copy\FLAC\FLAC.EXEAdditional command line options : -8 -V %s

TOC of the extracted CD

Track | Start | Length | Start sector | End sector --------------------------------------------------------- 1 | 0:00.00 | 1:53.54 | 0 | 8528 2 | 1:53.54 | 2:44.34 | 8529 | 20862 3 | 4:38.13 | 1:50.21 | 20863 | 29133 4 | 6:28.34 | 2:18.60 | 29134 | 39543 5 | 8:47.19 | 2:07.47 | 39544 | 49115 6 | 10:54.66 | 2:18.74 | 49116 | 59539 7 | 13:13.65 | 2:00.07 | 59540 | 68546 8 | 15:13.72 | 4:09.18 | 68547 | 87239 9 | 19:23.15 | 1:50.09 | 87240 | 95498 10 | 21:13.24 | 4:01.40 | 95499 | 113613 11 | 25:14.64 | 2:13.19 | 113614 | 123607 12 | 27:28.08 | 3:56.56 | 123608 | 141363 13 | 31:24.64 | 2:19.35 | 141364 | 151823 14 | 33:44.24 | 5:02.74 | 151824 | 174547 15 | 38:47.23 | 3:45.56 | 174548 | 191478 16 | 42:33.04 | 6:40.05 | 191479 | 221483 17 | 49:13.09 | 3:12.42 | 221484 | 235925 18 | 52:25.51 | 3:21.31 | 235926 | 251031 19 | 55:47.07 | 6:12.09 | 251032 | 278940

Range status and errors

Selected range

Filename C:\Music\Howard Shore - The Twilight Saga Eclipse - Score.wav

Peak level 100.0 % Range quality 100.0 % Test CRC BBACAD61 Copy CRC BBACAD61 Copy OK

No errors occurred

AccurateRip summary

Track 1 not present in databaseTrack 2 not present in databaseTrack 3 not present in databaseTrack 4 not present in databaseTrack 5 not present in databaseTrack 6 not present in databaseTrack 7 not present in databaseTrack 8 not present in databaseTrack 9 not present in databaseTrack 10 not present in databaseTrack 11 not present in databaseTrack 12 not present in databaseTrack 13 not present in databaseTrack 14 not present in databaseTrack 15 not present in databaseTrack 16 not present in databaseTrack 17 not present in databaseTrack 18 not present in databaseTrack 19 not present in database

None of the tracks are present in the AccurateRip database

End of status report


Трекер:  [ 19-Дек-2010 12:47 ]

  

Скачать .torrent

Размер .torrent файла 12 KB


Размер: 303 MB
Хэш (hash) релиза: bf550e975624efd760da2826c0bb4ce3599dd9cc

Торренты, похожие на The Twilight Saga: Eclipse Сумерки. Сага. Затмение скачать торрент

Форум Название Автор Размер S L Добавлен
Саундтреки к фильмам и мультфильмам (lossless) ·· (Soundtrack) Howard Shore & VA - The Twilight Saga: Eclipse / Сумерки. Сага. Затмение (18tr Deluxe-Edition) - 2010, FLAC (image+.cue), lossless AqvaGen 535639278511 MB 0 0 1292268415

22:26

13-Дек-10

Саундтреки к фильмам и мультфильмам (lossless) ·· (Soundtrack) Howard Shore & Various Artists - The Twilight Saga: Eclipse / Сумерки. Сага. Затмение - 2010, FLAC (image+.cue)+covers, lossless Mos 535639278511 MB 0 0 1291023161

12:32

29-Ноя-10

Саундтреки к фильмам и мультфильмам (lossless) ·· (Soundtrack) Сумерки. Сага: Затмение / The Twilight Saga: Eclipse - 2010, FLAC (image+.cue), lossless AqvaGen 548546381523 MB 0 0 1292268421

22:27

13-Дек-10

Саундтреки к фильмам и мультфильмам (mp3) ·· (Soundtrack / Alternative) Сумерки. Сага. Затмение / The Twilight Saga: Eclipse (iTunes digital album) (Muse, Howard Shore) - 2010, M4A (tracks), 256 kbps AqvaGen 185698042177 MB 0 0 1292265023

21:30

13-Дек-10

Саундтреки к фильмам и мультфильмам (mp3) ·· (Score) Сумерки. Сага. Затмение / The Twilight Saga: Eclipse (by Howard Shore) - 2010, MP3 (tracks), 320 kbps Phoenix 148963984142 MB 0 0 1292264991

21:29

13-Дек-10

Саундтреки к фильмам и мультфильмам (mp3) ·· (Soundtrack) Сумерки. Сага. Затмение / The Twilight Saga: Eclipse (German 18 Tracks Deluxe Edition) - 2010, MP3 (tracks), 320 kbps (+ iTunes digital bonus) Phoenix 201617647192 MB 0 0 1292264981

21:29

13-Дек-10

bot

Топик был перенесен в форум Саундтреки к фильмам и мультфильмам (lossless)

Перенес AqvaGen

Хотите добавить комментарий к записи скачать торрент The Twilight Saga: Eclipse Сумерки. Сага. Затмение

!Обратная связь