Скачать через торрент музыку Сумерки Twilight - 2008, FLAC бесплатно без регистрации torrent

Статистика раздачи
Размер:  198 MB   |    Зарегистрирован:  7 лет 7 месяцев   |    .torrent скачан:  79 раз   |   
Раздают:  1  
   
загрузка...
 
Автор Сообщение

FRANKS

avatar FRANKS


Сумерки / Twilight

Жанр: Score
Год выпуска диска: 2008
Производитель диска: USA
Аудио кодек: FLAC
Тип рипа: tracks+.cue
Битрейт аудио: lossless
Продолжительность: 00:47:06
Трэклист:
01. How I Would Die
02. Who Are They
03. Treaty
04. Phascination Phase
05. Humans Are Predators Too
06. I Dreamt Of Edward
07. I Know What You Are
08. The Most Dangerous Predator
09. The Skin Of A Killer
10. The Lion Fell In Love With The Lamb
11. Complications
12. Dinner With His Family
13. I Would Be The Meal
14. Bella's Lullaby
15. Nomads
16. Stuck Here Like Mom
17. Bella Is Part Of The Family
18. Tracking
19. In Place Of Someone You Love
20. Showdown In The Ballet Studio
21. Edward At Her Bed
AUDIOCHECKER v2.0 beta (build 457) - by Dester - opdester@freemail.hu
~~~~~~~~~~~~~~~~~~~~~~~~~~~~~~~~~~
-=== НЕ РЕДАКТИРУЙТЕ ЭТОТ ФАЙЛ! ===-

Путь: ...\Score

01 -=- 01. How I Would Die.flac -=- CDDA (100%)
02 -=- 02. Who Are They.flac -=- CDDA (100%)
03 -=- 03. Treaty.flac -=- CDDA (100%)
04 -=- 04. Phascination Phase.flac -=- CDDA (100%)
05 -=- 05. Humans Are Predators Too.flac -=- CDDA (100%)
06 -=- 06. I Dreamt Of Edward.flac -=- CDDA (100%)
07 -=- 07. I Know What You Are.flac -=- CDDA (100%)
08 -=- 08. The Most Dangerous Predator.flac -=- CDDA (87%)
09 -=- 09. The Skin Of A Killer.flac -=- CDDA (94%)
10 -=- 10. The Lion Fell In Love With The Lamb.flac -=- CDDA (100%)
11 -=- 11. Complications.flac -=- CDDA (99%)
12 -=- 12. Dinner With His Family.flac -=- CDDA (100%)
13 -=- 13. I Would Be The Meal.flac -=- CDDA (100%)
14 -=- 14. Bella's Lullaby.flac -=- CDDA (100%)
15 -=- 15. Nomads.flac -=- CDDA (100%)
16 -=- 16. Stuck Here Like Mom.flac -=- CDDA (100%)
17 -=- 17. Bella Is Part Of The Family.flac -=- CDDA (100%)
18 -=- 18. Tracking.flac -=- CDDA (100%)
19 -=- 19. In Place Of Someone You Love.flac -=- CDDA (54%)
20 -=- 20. Showdown In The Ballet Studio.flac -=- CDDA (100%)
21 -=- 21. Edward At Her Bed.flac -=- CDDA (100%)

Сводка 96,86% CDDA
Exact Audio Copy V0.99 prebeta 4 from 23. January 2008

EAC extraction logfile from 9. March 2009, 21:48

Carter Burwell / Twilight: The Score

Used drive : TSSTcorpDVD+-RW TS-H653B Adapter: 0 ID: 0

Read mode : Secure
Utilize accurate stream : Yes
Defeat audio cache : Yes
Make use of C2 pointers : No

Read offset correction : 6
Overread into Lead-In and Lead-Out : No
Fill up missing offset samples with silence : Yes
Delete leading and trailing silent blocks : No
Null samples used in CRC calculations : Yes
Used interface : Native Win32 interface for Win NT & 2000
Gap handling : Appended to previous track

Used output format : User Defined Encoder
Selected bitrate : 192 kBit/s
Quality : High
Add ID3 tag : No
Command line compressor : C:\Program Files\Exact Audio Copy\Flac\flac.exe
Additional command line options : -8 -A tukey(0.25) -A gauss(0.1875) -b 4096 -V -T "artist=%a" -T "title=%t" -T "album=%g" -T "date=%y" -T "tracknumber=%n" -T "genre=%m" %s

TOC of the extracted CD

Track | Start | Length | Start sector | End sector
---------------------------------------------------------
1 | 0:00.00 | 1:56.39 | 0 | 8738
2 | 1:56.39 | 3:29.58 | 8739 | 24471
3 | 5:26.22 | 1:59.73 | 24472 | 33469
4 | 7:26.20 | 2:07.07 | 33470 | 43001
5 | 9:33.27 | 2:06.51 | 43002 | 52502
6 | 11:40.03 | 1:10.26 | 52503 | 57778
7 | 12:50.29 | 2:37.58 | 57779 | 69611
8 | 15:28.12 | 2:24.43 | 69612 | 80454
9 | 17:52.55 | 3:00.21 | 80455 | 93975
10 | 20:53.01 | 3:15.62 | 93976 | 108662
11 | 24:08.63 | 1:11.00 | 108663 | 113987
12 | 25:19.63 | 0:40.29 | 113988 | 117016
13 | 26:00.17 | 1:30.33 | 117017 | 123799
14 | 27:30.50 | 2:23.53 | 123800 | 134577
15 | 29:54.28 | 3:53.55 | 134578 | 152107
16 | 33:48.08 | 1:44.53 | 152108 | 159960
17 | 35:32.61 | 1:26.13 | 159961 | 166423
18 | 36:58.74 | 2:19.71 | 166424 | 176919
19 | 39:18.70 | 1:49.69 | 176920 | 185163
20 | 41:08.64 | 4:50.68 | 185164 | 206981
21 | 45:59.57 | 1:05.14 | 206982 | 211870

Track 1

Filename C:\Documents and Settings\Administrator\Desktop\!Music\Carter Burwell - Twilight - The Score FLAC\01 - How I Would Die.wav

Pre-gap length 0:00:02.00

Peak level 100.0 %
Track quality 100.0 %
Test CRC E2C9C311
Copy CRC E2C9C311
Track not present in AccurateRip database
Copy OK

Track 2

Filename C:\Documents and Settings\Administrator\Desktop\!Music\Carter Burwell - Twilight - The Score FLAC\02 - Who Are They .wav

Pre-gap length 0:00:02.98

Peak level 100.0 %
Track quality 100.0 %
Test CRC CD24716D
Copy CRC CD24716D
Track not present in AccurateRip database
Copy OK

Track 3

Filename C:\Documents and Settings\Administrator\Desktop\!Music\Carter Burwell - Twilight - The Score FLAC\03 - Treaty.wav

Pre-gap length 0:00:02.98

Peak level 82.2 %
Track quality 100.0 %
Test CRC 68E11C8D
Copy CRC 68E11C8D
Track not present in AccurateRip database
Copy OK

Track 4

Filename C:\Documents and Settings\Administrator\Desktop\!Music\Carter Burwell - Twilight - The Score FLAC\04 - Phascination Phase.wav

Pre-gap length 0:00:00.98

Peak level 100.0 %
Track quality 100.0 %
Test CRC A5E1D2CD
Copy CRC A5E1D2CD
Track not present in AccurateRip database
Copy OK

Track 5

Filename C:\Documents and Settings\Administrator\Desktop\!Music\Carter Burwell - Twilight - The Score FLAC\05 - Humans Are Predators Too.wav

Pre-gap length 0:00:02.98

Peak level 98.8 %
Track quality 100.0 %
Test CRC 2B567E1B
Copy CRC 2B567E1B
Track not present in AccurateRip database
Copy OK

Track 6

Filename C:\Documents and Settings\Administrator\Desktop\!Music\Carter Burwell - Twilight - The Score FLAC\06 - I Dreamt Of Edward.wav

Pre-gap length 0:00:01.98

Peak level 37.6 %
Track quality 100.0 %
Test CRC F2DBBEDB
Copy CRC F2DBBEDB
Track not present in AccurateRip database
Copy OK

Track 7

Filename C:\Documents and Settings\Administrator\Desktop\!Music\Carter Burwell - Twilight - The Score FLAC\07 - I Know What You Are.wav

Pre-gap length 0:00:03.98

Peak level 98.9 %
Track quality 100.0 %
Test CRC 5BD21637
Copy CRC 5BD21637
Track not present in AccurateRip database
Copy OK

Track 8

Filename C:\Documents and Settings\Administrator\Desktop\!Music\Carter Burwell - Twilight - The Score FLAC\08 - The Most Dangerous Predator.wav

Peak level 47.8 %
Track quality 100.0 %
Test CRC 00FFDFBE
Copy CRC 00FFDFBE
Track not present in AccurateRip database
Copy OK

Track 9

Filename C:\Documents and Settings\Administrator\Desktop\!Music\Carter Burwell - Twilight - The Score FLAC\09 - The Skin Of A Killer.wav

Pre-gap length 0:00:01.98

Peak level 99.6 %
Track quality 100.0 %
Test CRC 5255BFBB
Copy CRC 5255BFBB
Track not present in AccurateRip database
Copy OK

Track 10

Filename C:\Documents and Settings\Administrator\Desktop\!Music\Carter Burwell - Twilight - The Score FLAC\10 - The Lion Fell In Love With The Lamb.wav

Pre-gap length 0:00:01.98

Peak level 65.8 %
Track quality 100.0 %
Test CRC 09515C95
Copy CRC 09515C95
Track not present in AccurateRip database
Copy OK

Track 11

Filename C:\Documents and Settings\Administrator\Desktop\!Music\Carter Burwell - Twilight - The Score FLAC\11 - Complications.wav

Pre-gap length 0:00:04.98

Peak level 67.2 %
Track quality 100.0 %
Test CRC DE83E604
Copy CRC DE83E604
Track not present in AccurateRip database
Copy OK

Track 12

Filename C:\Documents and Settings\Administrator\Desktop\!Music\Carter Burwell - Twilight - The Score FLAC\12 - Dinner With His Family.wav

Peak level 73.3 %
Track quality 100.0 %
Test CRC A4EBD88A
Copy CRC A4EBD88A
Track not present in AccurateRip database
Copy OK

Track 13

Filename C:\Documents and Settings\Administrator\Desktop\!Music\Carter Burwell - Twilight - The Score FLAC\13 - I Would Be The Meal.wav

Pre-gap length 0:00:01.98

Peak level 80.2 %
Track quality 100.0 %
Test CRC 2F7495A1
Copy CRC 2F7495A1
Track not present in AccurateRip database
Copy OK

Track 14

Filename C:\Documents and Settings\Administrator\Desktop\!Music\Carter Burwell - Twilight - The Score FLAC\14 - Bella's Lullaby.wav

Pre-gap length 0:00:05.98

Peak level 98.9 %
Track quality 100.0 %
Test CRC 4802CBA7
Copy CRC 4802CBA7
Track not present in AccurateRip database
Copy OK

Track 15

Filename C:\Documents and Settings\Administrator\Desktop\!Music\Carter Burwell - Twilight - The Score FLAC\15 - Nomads.wav

Pre-gap length 0:00:04.98

Peak level 100.0 %
Track quality 100.0 %
Test CRC EA1EA3B6
Copy CRC EA1EA3B6
Track not present in AccurateRip database
Copy OK

Track 16

Filename C:\Documents and Settings\Administrator\Desktop\!Music\Carter Burwell - Twilight - The Score FLAC\16 - Stuck Here Like Mom.wav

Pre-gap length 0:00:01.98

Peak level 36.4 %
Track quality 100.0 %
Test CRC 65B35114
Copy CRC 65B35114
Track not present in AccurateRip database
Copy OK

Track 17

Filename C:\Documents and Settings\Administrator\Desktop\!Music\Carter Burwell - Twilight - The Score FLAC\17 - Bella Is Part Of The Family.wav

Pre-gap length 0:00:03.98

Peak level 98.9 %
Track quality 100.0 %
Test CRC 5D13375E
Copy CRC 5D13375E
Track not present in AccurateRip database
Copy OK

Track 18

Filename C:\Documents and Settings\Administrator\Desktop\!Music\Carter Burwell - Twilight - The Score FLAC\18 - Tracking.wav

Pre-gap length 0:00:01.98

Peak level 99.2 %
Track quality 100.0 %
Test CRC FFDCD720
Copy CRC FFDCD720
Track not present in AccurateRip database
Copy OK

Track 19

Filename C:\Documents and Settings\Administrator\Desktop\!Music\Carter Burwell - Twilight - The Score FLAC\19 - In Place Of Someone You Love.wav

Peak level 38.5 %
Track quality 99.9 %
Test CRC 4A5DF348
Copy CRC 4A5DF348
Track not present in AccurateRip database
Copy OK

Track 20

Filename C:\Documents and Settings\Administrator\Desktop\!Music\Carter Burwell - Twilight - The Score FLAC\20 - Showdown In The Ballet Studio.wav

Pre-gap length 0:00:03.98

Peak level 100.0 %
Track quality 99.9 %
Test CRC F2BACED7
Copy CRC F2BACED7
Track not present in AccurateRip database
Copy OK

Track 21

Filename C:\Documents and Settings\Administrator\Desktop\!Music\Carter Burwell - Twilight - The Score FLAC\21 - Edward At Her Bed.wav

Peak level 43.1 %
Track quality 100.0 %
Test CRC 968C67E0
Copy CRC 968C67E0
Track not present in AccurateRip database
Copy OK

None of the tracks are present in the AccurateRip database

No errors occurred

End of status report


Трекер:  [ 30-Дек-2010 23:00 ]

  

Скачать .torrent

Размер .torrent файла 17 KB


Размер: 198 MB
Хэш (hash) релиза: 6de2396c5f05ac300930228eab02780662ea5f1d

Торренты, похожие на Сумерки Twilight - 2008, FLAC скачать торрент

Форум Название Автор Размер S L Добавлен
Саундтреки к фильмам и мультфильмам (lossless) ·· (Soundtrack) VA - Twilight / Сумерки - 2008, FLAC (image+.cue), lossless Galfimbul 309150691295 MB 0 0 1292268463

22:27

13-Дек-10

bot

Топик был перенесен в форум Саундтреки к фильмам и мультфильмам (lossless)

Перенес FRANKS

Хотите добавить комментарий к записи скачать торрент Сумерки Twilight - 2008, FLAC

!Обратная связь