Скачать через торрент музыку Шаг вперед 2: Улицы Step Up 2: The Streets - 2008, FLAC бесплатно без регистрации torrent

Статистика раздачи
Размер:  428 MB   |    Зарегистрирован:  7 лет 8 месяцев   |    .torrent скачан:  115 раз   |   
Раздают:  1  
   
загрузка...
 
Автор Сообщение

AqvaGen


Шаг вперед 2: Улицы / Step Up 2: The Streets
Жанр: Soundtrack
Год выпуска диска: 2008
Производитель диска: Canada
Аудио кодек: FLAC
Тип рипа: tracks+.cue
Битрейт аудио: lossless
Продолжительность: 01:00:29
Трэклист:

1. Flo Rida - Low (Feat. T-Pain)
2. Missy Elliott - Shake Your Pom Pom
3. Cherish - Killa (Feat. Yung Joc)
4. Plies - Hypnotized (Feat. Akon)
5. Cassie - Is It You
6. Trey Songz - Can't Help But Wait (Feat. Plies)
7. T-Pain - Church (Feat. Teddy Verseti)
8. Missy Elliott - Ching-A-Ling
9. Enrique Iglesias - Push
10. Cupid - 3-6-9 (Feat. B.o.B )
11. Bayje - Impossible
12. Sophia Fresh - Lives In Da Club (Feat. Jay Lyriq)
13. Scarface - Girl You Know (Feat. Trey Songz)
14. KC - Say Cheese
15. Brit & Alex - Let It Go
16. Montana Tucker, Sikora and Denial - Ain't No Stressin
 
Exact Audio Copy V0.99 prebeta 3 from 28. July 2007

EAC extraction logfile from 24. March 2008, 0:05

Various / STEP UP 2 The Streets\original motion picture soundtrack

Used drive : HL-DT-STRW/DVD GCC-4482B Adapter: 4 ID: 0

Read mode : SecureUtilize accurate stream : YesDefeat audio cache : YesMake use of C2 pointers : No

Read offset correction : 6Overread into Lead-In and Lead-Out : NoFill up missing offset samples with silence : YesDelete leading and trailing silent blocks : NoNull samples used in CRC calculations : NoUsed interface : Installed external ASPI interfaceGap handling : Appended to previous track

Used output format : User Defined EncoderSelected bitrate : 192 kBit/sQuality : HighAdd ID3 tag : NoCommand line compressor : J:\Exact Audio Copy\FLAC\bin\flac.exeAdditional command line options : -8 -A tukey(0.25) -A gauss(0.1875) -b 4096 -V -T "artist=%a" -T "title=%t" -T "album=%g" -T "date=%y" -T "tracknumber=%n" -T "genre=%m" %s --sector-align

TOC of the extracted CD

Track | Start | Length | Start sector | End sector --------------------------------------------------------- 1 | 0:00.00 | 3:50.12 | 0 | 17261 2 | 3:50.12 | 4:00.15 | 17262 | 35276 3 | 7:50.27 | 3:50.70 | 35277 | 52596 4 | 11:41.22 | 3:08.37 | 52597 | 66733 5 | 14:49.59 | 3:57.47 | 66734 | 84555 6 | 18:47.31 | 3:24.69 | 84556 | 99924 7 | 22:12.25 | 4:00.54 | 99925 | 117978 8 | 26:13.04 | 3:38.48 | 117979 | 134376 9 | 29:51.52 | 3:28.06 | 134377 | 149982 10 | 33:19.58 | 3:31.25 | 149983 | 165832 11 | 36:51.08 | 4:08.24 | 165833 | 184456 12 | 40:59.32 | 3:28.24 | 184457 | 200080 13 | 44:27.56 | 4:15.15 | 200081 | 219220 14 | 48:42.71 | 4:05.16 | 219221 | 237611 15 | 52:48.12 | 3:21.39 | 237612 | 252725 16 | 56:09.51 | 4:19.69 | 252726 | 272219

Track 1

Filename J:\Extra Music Rips\Step Up 2 - The Streets [FLAC]\01 - Low - Flo Rida (feat. T-Pain) - Low - Flo Rida (feat. T-Pain).wav

Pre-gap length 0:00:02.00

Peak level 98.8 % Track quality 100.0 % Test CRC 45682D14 Copy CRC 45682D14 Track not present in AccurateRip database Copy OK

Track 2

Filename J:\Extra Music Rips\Step Up 2 - The Streets [FLAC]\02 - Shake Your Pom Pom - Missy Elliott - Shake Your Pom Pom - Missy Elliott.wav

Peak level 99.9 % Track quality 100.0 % Test CRC D6A107F7 Copy CRC D6A107F7 Track not present in AccurateRip database Copy OK

Track 3

Filename J:\Extra Music Rips\Step Up 2 - The Streets [FLAC]\03 - Killa - Cherish (feat. Yung Joc) - Killa - Cherish (feat. Yung Joc).wav

Peak level 97.6 % Track quality 100.0 % Test CRC 0EE0D305 Copy CRC 0EE0D305 Track not present in AccurateRip database Copy OK

Track 4

Filename J:\Extra Music Rips\Step Up 2 - The Streets [FLAC]\04 - Hypnotized - Plies (feat. Akon) - Hypnotized - Plies (feat. Akon).wav

Peak level 99.9 % Track quality 100.0 % Test CRC 90FB1D2A Copy CRC 90FB1D2A Track not present in AccurateRip database Copy OK

Track 5

Filename J:\Extra Music Rips\Step Up 2 - The Streets [FLAC]\05 - Is It You - Cassie - Is It You - Cassie.wav

Peak level 99.9 % Track quality 100.0 % Test CRC 39677B40 Copy CRC 39677B40 Track not present in AccurateRip database Copy OK

Track 6

Filename J:\Extra Music Rips\Step Up 2 - The Streets [FLAC]\06 - Can't Help But Wait - Trey Songz (feat. Plies) - Can't Help But Wait - Trey Songz (feat. Plies).wav

Peak level 98.8 % Track quality 100.0 % Test CRC 7BCAF8FC Copy CRC 7BCAF8FC Track not present in AccurateRip database Copy OK

Track 7

Filename J:\Extra Music Rips\Step Up 2 - The Streets [FLAC]\07 - Church - T-Pain (feat. Teddy Verseti) - Church - T-Pain (feat. Teddy Verseti).wav

Peak level 93.3 % Track quality 99.9 % Test CRC 7EF011DF Copy CRC 7EF011DF Track not present in AccurateRip database Copy OK

Track 8

Filename J:\Extra Music Rips\Step Up 2 - The Streets [FLAC]\08 - Ching-A-Ling - Missy Elliott - Ching-A-Ling - Missy Elliott.wav

Peak level 100.0 % Track quality 100.0 % Test CRC 908EE2D9 Copy CRC 908EE2D9 Track not present in AccurateRip database Copy OK

Track 9

Filename J:\Extra Music Rips\Step Up 2 - The Streets [FLAC]\09 - Push - Enrique Iglesias - Push - Enrique Iglesias.wav

Peak level 98.8 % Track quality 100.0 % Test CRC 2C4D26BC Copy CRC 2C4D26BC Track not present in AccurateRip database Copy OK

Track 10

Filename J:\Extra Music Rips\Step Up 2 - The Streets [FLAC]\10 - 369 - Cupid (feat. B.O.B.) - 369 - Cupid (feat. B.O.B.).wav

Peak level 100.0 % Track quality 100.0 % Test CRC BC1A2464 Copy CRC BC1A2464 Track not present in AccurateRip database Copy OK

Track 11

Filename J:\Extra Music Rips\Step Up 2 - The Streets [FLAC]\11 - Impossible - Bayje - Impossible - Bayje.wav

Peak level 98.8 % Track quality 100.0 % Test CRC 6A9EC17D Copy CRC 6A9EC17D Track not present in AccurateRip database Copy OK

Track 12

Filename J:\Extra Music Rips\Step Up 2 - The Streets [FLAC]\12 - Lives In Da Club - Sophia Fresh (feat. Jay Lyriq) - Lives In Da Club - Sophia Fresh (feat. Jay Lyriq).wav

Pre-gap length 0:00:30.40

Peak level 98.8 % Track quality 100.0 % Test CRC D9C4BE58 Copy CRC D9C4BE58 Track not present in AccurateRip database Copy OK

Track 13

Filename J:\Extra Music Rips\Step Up 2 - The Streets [FLAC]\13 - Girl You Know - Scarface (feat. Trey Songz) - Girl You Know - Scarface (feat. Trey Songz).wav

Peak level 98.8 % Track quality 100.0 % Test CRC AA970208 Copy CRC AA970208 Track not present in AccurateRip database Copy OK

Track 14

Filename J:\Extra Music Rips\Step Up 2 - The Streets [FLAC]\14 - Say Cheese - KC - Say Cheese - KC.wav

Pre-gap length 0:00:01.13

Peak level 98.8 % Track quality 100.0 % Test CRC 3BE27DE1 Copy CRC 3BE27DE1 Track not present in AccurateRip database Copy OK

Track 15

Filename J:\Extra Music Rips\Step Up 2 - The Streets [FLAC]\15 - Let It Go - Brit & Alex - Let It Go - Brit & Alex.wav

Peak level 98.8 % Track quality 100.0 % Test CRC 5B771790 Copy CRC 5B771790 Track not present in AccurateRip database Copy OK

Track 16

Filename J:\Extra Music Rips\Step Up 2 - The Streets [FLAC]\16 - Ain't No Stressin - Montana Tucker, Sikora, Denial - Ain't No Stressin - Montana Tucker, Sikora, Denial.wav

Peak level 98.8 % Track quality 100.0 % Test CRC E8D28D83 Copy CRC E8D28D83 Track not present in AccurateRip database Copy OK

None of the tracks are present in the AccurateRip database

No errors occurred

End of status report
 
REM DATE 2008

REM DISCID C90E2D10

REM COMMENT "ExactAudioCopy v0.99pb3"

PERFORMER "Various"

TITLE "STEP UP 2 The Streets\original motion picture soundtrack"

FILE "01 - Flo Rida feat. T-Pain - Low.wav" WAVE

TRACK 01 AUDIO

TITLE "Low - Flo Rida (feat. T-Pain)"

PERFORMER "Low - Flo Rida (feat. T-Pain)"

INDEX 01 00:00:00

FILE "02 - Missy Elliott - Shake Your Pom Pom.wav" WAVE

TRACK 02 AUDIO

TITLE "Shake Your Pom Pom - Missy Elliott"

PERFORMER "Shake Your Pom Pom - Missy Elliott"

INDEX 01 00:00:00

FILE "03 - Cherish feat. Yung Joc - Killa.wav" WAVE

TRACK 03 AUDIO

TITLE "Killa - Cherish (feat. Yung Joc)"

PERFORMER "Killa - Cherish (feat. Yung Joc)"

INDEX 01 00:00:00

FILE "04 - Plies feat. Akon - Hypnotized.wav" WAVE

TRACK 04 AUDIO

TITLE "Hypnotized - Plies (feat. Akon)"

PERFORMER "Hypnotized - Plies (feat. Akon)"

INDEX 01 00:00:00

FILE "05 - Cassie - Is It You.wav" WAVE

TRACK 05 AUDIO

TITLE "Is It You - Cassie"

PERFORMER "Is It You - Cassie"

INDEX 01 00:00:00

FILE "06 - Trey Songz feat. Plies - Can't Help But Wait.wav" WAVE

TRACK 06 AUDIO

TITLE "Can't Help But Wait - Trey Songz (feat. Plies)"

PERFORMER "Can't Help But Wait - Trey Songz (feat. Plies)"

INDEX 01 00:00:00

FILE "07 - T-Pain feat. Teddy Verseti - Church.wav" WAVE

TRACK 07 AUDIO

TITLE "Church - T-Pain (feat. Teddy Verseti) "

PERFORMER "Church - T-Pain (feat. Teddy Verseti) "

INDEX 01 00:00:00

FILE "08 - Missy Elliott - Ching-A-Ling.wav" WAVE

TRACK 08 AUDIO

TITLE "Ching-A-Ling - Missy Elliott"

PERFORMER "Ching-A-Ling - Missy Elliott"

INDEX 01 00:00:00

FILE "09 - Enrique Iglesias - Push.wav" WAVE

TRACK 09 AUDIO

TITLE "Push - Enrique Iglesias"

PERFORMER "Push - Enrique Iglesias"

INDEX 01 00:00:00

FILE "10 - Cupid feat. B.O.B. - 369.wav" WAVE

TRACK 10 AUDIO

TITLE "369 - Cupid (feat. B.O.B.)"

PERFORMER "369 - Cupid (feat. B.O.B.)"

INDEX 01 00:00:00

FILE "11 - Bayje - Impossible.wav" WAVE

TRACK 11 AUDIO

TITLE "Impossible - Bayje"

PERFORMER "Impossible - Bayje"

INDEX 01 00:00:00

TRACK 12 AUDIO

TITLE "Lives In Da Club - Sophia Fresh (feat. Jay Lyriq)"

PERFORMER "Lives In Da Club - Sophia Fresh (feat. Jay Lyriq)"

INDEX 00 03:37:69

FILE "12 - Sophia Fresh feat. Jay Lyriq - Lives In Da Club.wav" WAVE

INDEX 01 00:00:00

FILE "13 - Scarface feat. Trey Songz - Girl You Know.wav" WAVE

TRACK 13 AUDIO

TITLE "Girl You Know - Scarface (feat. Trey Songz)"

PERFORMER "Girl You Know - Scarface (feat. Trey Songz)"

INDEX 01 00:00:00

TRACK 14 AUDIO

TITLE "Say Cheese - KC"

PERFORMER "Say Cheese - KC"

INDEX 00 04:14:05

FILE "14 - KC - Say Cheese.wav" WAVE

INDEX 01 00:00:00

FILE "15 - Brit & Alex - Let It Go.wav" WAVE

TRACK 15 AUDIO

TITLE "Let It Go - Brit & Alex"

PERFORMER "Let It Go - Brit & Alex"

INDEX 01 00:00:00

FILE "16 - Montana Tucker & Sikora & Denial - Ain't No Stressin'.wav" WAVE

TRACK 16 AUDIO

TITLE "Ain't No Stressin - Montana Tucker, Sikora, Denial"

PERFORMER "Ain't No Stressin - Montana Tucker, Sikora, Denial"

INDEX 01 00:00:00


Трекер:  [ 19-Дек-2010 14:39 ]

  

Скачать .torrent

Размер .torrent файла 18 KB


Размер: 428 MB
Хэш (hash) релиза: 95dfd1b3e3ddad183c0957639c2c71978382683f

bot

Топик был перенесен в форум Саундтреки к фильмам и мультфильмам (lossless)

Перенес AqvaGen

Хотите добавить комментарий к записи скачать торрент Шаг вперед 2: Улицы Step Up 2: The Streets - 2008, FLAC

!Обратная связь