Скачать через торрент музыку Цирк дю Солей: Кортео Cirque du Soleil: Corteo - 2009 бесплатно без регистрации torrent

Статистика раздачи
Размер:  347 MB   |    Зарегистрирован:  7 лет 4 месяца   |    .torrent скачан:  96 раз   |   
Раздают:  1  
   
загрузка...
 
Автор Сообщение

AqvaGen


Цирк дю Солей: Кортео / Cirque du Soleil: Corteo

Жанр: Soundtrack
Год выпуска диска: 2009
Год выпуска фильма: 2005
Страна-производитель диска: USA
Издатель (лейбл): Universal Music
Аудио кодек: FLAC (*.flac)
Тип рипа: image+.cue
Битрейт аудио: lossless
Продолжительность: 56:10
Наличие сканов в содержимом раздачи: да

Треклист:
01. Funerale
02. Ritornare
03. Reve Dun Pantin
04. Les Chevaux A Bottes
05. Nos Dejo
06. Alezmer Moment
07. Prendersi Per Mano
08. Anneaux
09. El Cielo Sabra
10. Fugire
11. Volo Volando
12. Un Tierno Y Dulce Chaut
13. Balade Au Bout Dune Echelle
14. Garda Lassu
15. Triangle Tango
16. Che Finalone
 
Exact Audio Copy V0.99 prebeta 5 from 4. May 2009

Отчёт EAC об извлечении, выполненном 5. ноября 2010, 23:39

Cirque Du Soleil / Corteo

Дисковод: Optiarc DVD RW AD-5200A Adapter: 4 ID: 0

Режим чтения : ДостоверностьИспользование точного потока : ДаОтключение кэша аудио : ДаИспользование указателей C2 : Нет

Коррекция смещения при чтении : 48Способность читать области Lead-in и Lead-out : НетЗаполнение пропущенных сэмплов тишиной : ДаУдаление блоков с тишиной в начале и конце : НетПри вычислениях CRC использовались нулевые сэмплы : ДаИнтерфейс : Встроенный Win32-интерфейс для Win NT/2000

Выходной формат : Пользовательский кодировщикВыбранный битрейт : 128 kBit/sКачество : ВысокийДобавление ID3-тэга : НетУтилита сжатия : C:\Program Files\FLAC\flac.exeДополнительные параметры : -8 -V %s

TOC извлечённого CD

Трек | Старт | Длительность | Начальный сектор | Конечный сектор --------------------------------------------------------------------- 1 | 0:00.00 | 0:53.73 | 0 | 4047 2 | 0:53.73 | 4:03.65 | 4048 | 22337 3 | 4:57.63 | 4:58.39 | 22338 | 44726 4 | 9:56.27 | 0:56.70 | 44727 | 48996 5 | 10:53.22 | 4:24.28 | 48997 | 68824 6 | 15:17.50 | 4:11.58 | 68825 | 87707 7 | 19:29.33 | 5:09.05 | 87708 | 110887 8 | 24:38.38 | 5:43.27 | 110888 | 136639 9 | 30:21.65 | 5:19.04 | 136640 | 160568 10 | 35:40.69 | 0:35.05 | 160569 | 163198 11 | 36:15.74 | 4:34.57 | 163199 | 183805 12 | 40:50.56 | 0:48.11 | 183806 | 187416 13 | 41:38.67 | 4:08.03 | 187417 | 206019 14 | 45:46.70 | 0:48.57 | 206020 | 209676 15 | 46:35.52 | 4:41.42 | 209677 | 230793 16 | 51:17.19 | 5:00.57 | 230794 | 253350

Характеристики диапазона извлечения и сообщения об ошибках

Выбранный диапазон

Имя файла D:\Моя музыка\Cirque Du Soleil - Corteo.wav

Пиковый уровень 98.8 % Качество диапазона 100.0 % CRC теста 5DE91098 CRC копии 5DE91098 Копирование... OK

Ошибок не произошло

AccurateRip: сводка

Трек 1 точность не определена (достоверность 17) [8AE1A12A], AccurateRip вернул [92473FF3]Трек 2 точность не определена (достоверность 16) [03C52344], AccurateRip вернул [32944803]Трек 3 точность не определена (достоверность 16) [1590DA8A], AccurateRip вернул [98EE4E92]Трек 4 точность не определена (достоверность 17) [84380661], AccurateRip вернул [2B58FFF1]Трек 5 точность не определена (достоверность 16) [98750608], AccurateRip вернул [03362D60]Трек 6 точность не определена (достоверность 16) [71D22E2E], AccurateRip вернул [9519003E]Трек 7 точность не определена (достоверность 16) [5D00A8FF], AccurateRip вернул [AC076B2F]Трек 8 точность не определена (достоверность 17) [E35ECF40], AccurateRip вернул [BD791BC0]Трек 9 точность не определена (достоверность 16) [2D906231], AccurateRip вернул [4E251679]Трек 10 точность не определена (достоверность 16) [782A4493], AccurateRip вернул [AF77C873]Трек 11 точность не определена (достоверность 17) [1A998351], AccurateRip вернул [CCE385A9]Трек 12 точность не определена (достоверность 16) [609DCC2F], AccurateRip вернул [907C1457]Трек 13 точность не определена (достоверность 16) [2E53C308], AccurateRip вернул [A68212B8]Трек 14 точность не определена (достоверность 16) [A3A0F982], AccurateRip вернул [88827B6A]Трек 15 точность не определена (достоверность 15) [BB417623], AccurateRip вернул [357D4EBB]Трек 16 точность не определена (достоверность 15) [190C8392], AccurateRip вернул [5768F1AA]

Ни один трек не прошёл проверки на точностьВ вашей базе может быть иной вариант штамповки диска

Конец отчёта


Трекер:  [ 20-Дек-2010 16:00 ]

  

Скачать .torrent

Размер .torrent файла 14 KB


Размер: 347 MB
Хэш (hash) релиза: 01e7f431a6069a48f4e6b9cacd4821c15ba4946b

bot

Топик был перенесен в форум Саундтреки к фильмам и мультфильмам (lossless)

Перенес AqvaGen

Хотите добавить комментарий к записи скачать торрент Цирк дю Солей: Кортео Cirque du Soleil: Corteo - 2009

!Обратная связь