Скачать через торрент музыку Властелин колец: Tрилогия The Lord of the Rings: Trilogy бесплатно без регистрации torrent

Статистика раздачи
Размер:  518 MB   |    Зарегистрирован:  7 лет 4 месяца   |    .torrent скачан:  88 раз   |   
Раздают:  1  
   
загрузка...
 
Автор Сообщение

AqvaGen


Властелин колец: Tрилогия / The Lord of the Rings: Trilogy

Название альбома: Music from The Lord of the Rings Trilogy

Дирижер: Nic Raine
Исполняют: Prague Philharmonic Orchestra

Жанр: Score
Композитор: Howard Shore
Год выпуска диска: 2004
Год выпуска фильма: 2001-2003
Страна-производитель диска: USA / Silva America
Издатель (лейбл): Mercury Records

Аудио кодек: FLAC (*.flac)
Тип рипа: tracks+.cue
Битрейт аудио: lossless
Продолжительность: 1:42:02

Наличие сканов в содержимом раздачи: нет
CD 1(54:06) :

1. The Fellowship (5:52)
2. The Prophecy (5:01)
3. Concerning Hobbits (2:44)
4. The Shadow of the Past / A Knife in the Dark (7:26)
5. The Bridge of Khazad-Dum (5:57)
6. May It Be (Instrumental Version) (5:19)

7. The Riders of Rohan (3:52)
8. Evenstar (3:38)
9. Forth Eorlingas / Isengard Unleashed (8:30)
10. Gollum's Song (Instrumental Version) (5:47)


CD 2 (47:56):

The Return of the King:

1. Hope and Memory / Minas Tirith (2:38)
2. The White Tree (3:47)
3. Twilight and Shadow (3:53)
4. The Fields of Pelennor (3:12)
5. The Return of the King / Finale (16:16)
6. Into the West (Instrumental Version) (4:39)

7. Gollum's Song - Helen Hobson (4:05)
8. May It Be - Tara Scammell (4:46)
9. Into the West - Helen Hobson (4:40)
CD-1
 
Exact Audio Copy V0.99 prebeta 5 from 4. May 2009

EAC extraction logfile from 16. August 2010, 4:42

Howard Shore / The Lord of the Rings Trilogy: Disc 1

Used drive : TSSTcorpCDDVDW SH-S223Q Adapter: 1 ID: 1

Read mode : SecureUtilize accurate stream : YesDefeat audio cache : YesMake use of C2 pointers : No

Read offset correction : 6Overread into Lead-In and Lead-Out : NoFill up missing offset samples with silence : YesDelete leading and trailing silent blocks : NoNull samples used in CRC calculations : YesUsed interface : Native Win32 interface for Win NT & 2000Gap handling : Appended to previous track

Used output format : User Defined EncoderSelected bitrate : 128 kBit/sQuality : HighAdd ID3 tag : NoCommand line compressor : C:\Program Files (x86)\FLAC\flac.exeAdditional command line options : -V -8 -T "artist=%a" -T "title=%t" -T "album=%g" -T "date=%y" -T "tracknumber=%n" -T "genre=%m" %s

TOC of the extracted CD

Track | Start | Length | Start sector | End sector --------------------------------------------------------- 1 | 0:00.00 | 5:52.35 | 0 | 26434 2 | 5:52.35 | 5:01.04 | 26435 | 49013 3 | 10:53.39 | 2:44.08 | 49014 | 61321 4 | 13:37.47 | 7:26.09 | 61322 | 94780 5 | 21:03.56 | 5:57.54 | 94781 | 121609 6 | 27:01.35 | 5:19.14 | 121610 | 145548 7 | 32:20.49 | 3:52.56 | 145549 | 163004 8 | 36:13.30 | 3:38.40 | 163005 | 179394 9 | 39:51.70 | 8:30.04 | 179395 | 217648 10 | 48:21.74 | 5:47.70 | 217649 | 243743

Track 1

Filename C:\EAC\CD 1\01 - The Fellowship.wav

Pre-gap length 0:00:02.00

Peak level 93.4 % Track quality 100.0 % Test CRC 891906BF Copy CRC 891906BF Accurately ripped (confidence 3) [F35C3FAA] Copy OK

Track 2

Filename C:\EAC\CD 1\02 - The Prophecy.wav

Peak level 98.0 % Track quality 100.0 % Test CRC 1BB1B430 Copy CRC 1BB1B430 Accurately ripped (confidence 3) [638944E9] Copy OK

Track 3

Filename C:\EAC\CD 1\03 - Concerning Hobbits.wav

Peak level 80.9 % Track quality 100.0 % Test CRC C9527D09 Copy CRC C9527D09 Accurately ripped (confidence 3) [12CA20C4] Copy OK

Track 4

Filename C:\EAC\CD 1\04 - The Shadow of the Past , A Knife in the Dark.wav

Peak level 99.6 % Track quality 100.0 % Test CRC AA49911E Copy CRC AA49911E Accurately ripped (confidence 3) [94870A2E] Copy OK

Track 5

Filename C:\EAC\CD 1\05 - The Bridge of Khazad Dum.wav

Peak level 99.1 % Track quality 100.0 % Test CRC 17191D24 Copy CRC 17191D24 Accurately ripped (confidence 3) [BA3B848F] Copy OK

Track 6

Filename C:\EAC\CD 1\06 - May It Be.wav

Peak level 96.7 % Track quality 100.0 % Test CRC E26421F9 Copy CRC E26421F9 Accurately ripped (confidence 3) [19DE212C] Copy OK

Track 7

Filename C:\EAC\CD 1\07 - The Riders of Rohan.wav

Peak level 97.1 % Track quality 99.9 % Test CRC C9644319 Copy CRC C9644319 Accurately ripped (confidence 3) [014FBD83] Copy OK

Track 8

Filename C:\EAC\CD 1\08 - Evenstar.wav

Peak level 74.6 % Track quality 100.0 % Test CRC BCA922EB Copy CRC BCA922EB Accurately ripped (confidence 3) [F7B6B5B4] Copy OK

Track 9

Filename C:\EAC\CD 1\09 - Forth Eorlingas , Isengard Unleashed.wav

Peak level 98.4 % Track quality 99.9 % Test CRC 429B43EC Copy CRC 429B43EC Accurately ripped (confidence 3) [F19840A8] Copy OK

Track 10

Filename C:\EAC\CD 1\10 - Gollum's Song.wav

Peak level 93.8 % Track quality 100.0 % Test CRC 4B43F1BB Copy CRC 4B43F1BB Accurately ripped (confidence 3) [031D6066] Copy OK

All tracks accurately ripped

No errors occurred

End of status report
 
AUDIOCHECKER v1.2 - by Dester - opdester@freemail.hu~~~~~~~~~~~~~~~~~

01 -===- E:\MUSIC\Howard Shore - The Lord Of The Rings Trilogy [FLAC]\CD 1\01 - The Fellowship.flac Extracted successfully Conclusion: This track looks like CDDA with probability 100%

02 -===- E:\MUSIC\Howard Shore - The Lord Of The Rings Trilogy [FLAC]\CD 1\02 - The Prophecy.flac Extracted successfully Conclusion: This track looks like CDDA with probability 100%

03 -===- E:\MUSIC\Howard Shore - The Lord Of The Rings Trilogy [FLAC]\CD 1\03 - Concerning Hobbits.flac Extracted successfully Conclusion: This track looks like CDDA with probability 100%

04 -===- E:\MUSIC\Howard Shore - The Lord Of The Rings Trilogy [FLAC]\CD 1\04 - The Shadow of the Past , A Knife in the Dark.flac Extracted successfully Conclusion: This track looks like CDDA with probability 100%

05 -===- E:\MUSIC\Howard Shore - The Lord Of The Rings Trilogy [FLAC]\CD 1\05 - The Bridge of Khazad Dum.flac Extracted successfully Conclusion: This track looks like CDDA with probability 100%

06 -===- E:\MUSIC\Howard Shore - The Lord Of The Rings Trilogy [FLAC]\CD 1\06 - May It Be.flac Extracted successfully Conclusion: This track looks like CDDA with probability 54%

07 -===- E:\MUSIC\Howard Shore - The Lord Of The Rings Trilogy [FLAC]\CD 1\07 - The Riders of Rohan.flac Extracted successfully Conclusion: This track looks like CDDA with probability 100%

08 -===- E:\MUSIC\Howard Shore - The Lord Of The Rings Trilogy [FLAC]\CD 1\08 - Evenstar.flac Extracted successfully Conclusion: This track looks like CDDA with probability 100%

09 -===- E:\MUSIC\Howard Shore - The Lord Of The Rings Trilogy [FLAC]\CD 1\09 - Forth Eorlingas , Isengard Unleashed.flac Extracted successfully Conclusion: This track looks like CDDA with probability 100%

10 -===- E:\MUSIC\Howard Shore - The Lord Of The Rings Trilogy [FLAC]\CD 1\10 - Gollum's Song.flac Extracted successfully Conclusion: This track looks like CDDA with probability 100%
 
REM GENRE SoundtrackREM DATE 2004REM DISCID 880CB10AREM COMMENT "ExactAudioCopy v0.99pb5"PERFORMER "Howard Shore"TITLE "The Lord of the Rings Trilogy: Disc 1"FILE "01 - The Fellowship.wav" WAVE TRACK 01 AUDIO TITLE "The Fellowship" PERFORMER "Howard Shore" INDEX 01 00:00:00FILE "02 - The Prophecy.wav" WAVE TRACK 02 AUDIO TITLE "The Prophecy" PERFORMER "Howard Shore" INDEX 01 00:00:00FILE "03 - Concerning Hobbits.wav" WAVE TRACK 03 AUDIO TITLE "Concerning Hobbits" PERFORMER "Howard Shore" INDEX 01 00:00:00FILE "04 - The Shadow of the Past , A Knife in the Dark.wav" WAVE TRACK 04 AUDIO TITLE "The Shadow of the Past / A Knife in the Dark" PERFORMER "Howard Shore" INDEX 01 00:00:00FILE "05 - The Bridge of Khazad Dum.wav" WAVE TRACK 05 AUDIO TITLE "The Bridge of Khazad Dum" PERFORMER "Howard Shore" INDEX 01 00:00:00FILE "06 - May It Be.wav" WAVE TRACK 06 AUDIO TITLE "May It Be" PERFORMER "Howard Shore" INDEX 01 00:00:00FILE "07 - The Riders of Rohan.wav" WAVE TRACK 07 AUDIO TITLE "The Riders of Rohan" PERFORMER "Howard Shore" INDEX 01 00:00:00FILE "08 - Evenstar.wav" WAVE TRACK 08 AUDIO TITLE "Evenstar" PERFORMER "Howard Shore" INDEX 01 00:00:00FILE "09 - Forth Eorlingas , Isengard Unleashed.wav" WAVE TRACK 09 AUDIO TITLE "Forth Eorlingas / Isengard Unleashed" PERFORMER "Howard Shore" INDEX 01 00:00:00FILE "10 - Gollum's Song.wav" WAVE TRACK 10 AUDIO TITLE "Gollum's Song" PERFORMER "Howard Shore" INDEX 01 00:00:00
CD-2
 
Exact Audio Copy V0.99 prebeta 5 from 4. May 2009

EAC extraction logfile from 16. August 2010, 5:08

Howard Shore / The Lord Of The Rings Trilogy - CD2

Used drive : TSSTcorpCDDVDW SH-S223Q Adapter: 1 ID: 1

Read mode : SecureUtilize accurate stream : YesDefeat audio cache : YesMake use of C2 pointers : No

Read offset correction : 6Overread into Lead-In and Lead-Out : NoFill up missing offset samples with silence : YesDelete leading and trailing silent blocks : NoNull samples used in CRC calculations : YesUsed interface : Native Win32 interface for Win NT & 2000Gap handling : Appended to previous track

Used output format : User Defined EncoderSelected bitrate : 128 kBit/sQuality : HighAdd ID3 tag : NoCommand line compressor : C:\Program Files (x86)\FLAC\flac.exeAdditional command line options : -V -8 -T "artist=%a" -T "title=%t" -T "album=%g" -T "date=%y" -T "tracknumber=%n" -T "genre=%m" %s

TOC of the extracted CD

Track | Start | Length | Start sector | End sector --------------------------------------------------------- 1 | 0:00.00 | 2:38.09 | 0 | 11858 2 | 2:38.09 | 3:47.46 | 11859 | 28929 3 | 6:25.55 | 3:53.53 | 28930 | 46457 4 | 10:19.33 | 3:11.73 | 46458 | 60855 5 | 13:31.31 | 16:16.67 | 60856 | 134122 6 | 29:48.23 | 4:39.68 | 134123 | 155115 7 | 34:28.16 | 4:05.56 | 155116 | 173546 8 | 38:33.72 | 4:46.26 | 173547 | 195022 9 | 43:20.23 | 4:40.09 | 195023 | 216031

Track 1

Filename C:\EAC\CD 2\01 - Hope and Memory , Minas Tirith.wav

Pre-gap length 0:00:02.00

Peak level 97.4 % Track quality 100.0 % Test CRC E97F166A Copy CRC E97F166A Accurately ripped (confidence 3) [F66A10C7] Copy OK

Track 2

Filename C:\EAC\CD 2\02 - The White Tree.wav

Peak level 96.9 % Track quality 100.0 % Test CRC 3798F248 Copy CRC 3798F248 Accurately ripped (confidence 3) [06DC04D7] Copy OK

Track 3

Filename C:\EAC\CD 2\03 - Twilight and Shadow.wav

Peak level 85.5 % Track quality 100.0 % Test CRC 57CB19EE Copy CRC 57CB19EE Accurately ripped (confidence 3) [8E6B7F5E] Copy OK

Track 4

Filename C:\EAC\CD 2\04 - The Fields of Pelennor.wav

Peak level 97.6 % Track quality 100.0 % Test CRC F517A195 Copy CRC F517A195 Accurately ripped (confidence 3) [88DA6C8B] Copy OK

Track 5

Filename C:\EAC\CD 2\05 - The Return of the King , Finale.wav

Peak level 97.5 % Track quality 99.9 % Test CRC 243A12D4 Copy CRC 243A12D4 Accurately ripped (confidence 3) [1C9281CD] Copy OK

Track 6

Filename C:\EAC\CD 2\06 - Into The West.wav

Peak level 84.2 % Track quality 99.9 % Test CRC 28C3BED5 Copy CRC 28C3BED5 Accurately ripped (confidence 3) [93E584BB] Copy OK

Track 7

Filename C:\EAC\CD 2\07 - Gollum's Song (Vocal Version featuring Helen Hobson).wav

Peak level 92.4 % Track quality 100.0 % Test CRC 0B14B377 Copy CRC 0B14B377 Accurately ripped (confidence 3) [8C31D6B7] Copy OK

Track 8

Filename C:\EAC\CD 2\08 - May It Be (Vocal Version featuring Tara Scammell).wav

Peak level 89.5 % Track quality 100.0 % Test CRC A4DB6FAF Copy CRC A4DB6FAF Accurately ripped (confidence 3) [6302BF2B] Copy OK

Track 9

Filename C:\EAC\CD 2\09 - Into The West (Vocal Version featuring Helen Hobson).wav

Peak level 93.2 % Track quality 100.0 % Test CRC C1602CEA Copy CRC C1602CEA Accurately ripped (confidence 3) [2586A792] Copy OK

All tracks accurately ripped

No errors occurred

End of status report
 
AUDIOCHECKER v1.2 - by Dester - opdester@freemail.hu~~~~~~~~~~~~~~~~~

1 -===- E:\MUSIC\Howard Shore - The Lord Of The Rings Trilogy [FLAC]\CD 2\01 - Hope and Memory , Minas Tirith.flac Extracted successfully Conclusion: This track looks like CDDA with probability 100%

2 -===- E:\MUSIC\Howard Shore - The Lord Of The Rings Trilogy [FLAC]\CD 2\02 - The White Tree.flac Extracted successfully Conclusion: This track looks like CDDA with probability 100%

3 -===- E:\MUSIC\Howard Shore - The Lord Of The Rings Trilogy [FLAC]\CD 2\03 - Twilight and Shadow.flac Extracted successfully Conclusion: This track looks like CDDA with probability 100%

4 -===- E:\MUSIC\Howard Shore - The Lord Of The Rings Trilogy [FLAC]\CD 2\04 - The Fields of Pelennor.flac Extracted successfully Conclusion: This track looks like CDDA with probability 100%

5 -===- E:\MUSIC\Howard Shore - The Lord Of The Rings Trilogy [FLAC]\CD 2\05 - The Return of the King , Finale.flac Extracted successfully Conclusion: This track looks like CDDA with probability 100%

6 -===- E:\MUSIC\Howard Shore - The Lord Of The Rings Trilogy [FLAC]\CD 2\06 - Into The West.flac Extracted successfully Conclusion: This track looks like CDDA with probability 100%

7 -===- E:\MUSIC\Howard Shore - The Lord Of The Rings Trilogy [FLAC]\CD 2\07 - Gollum's Song (Vocal Version featuring Helen Hobson).flac Extracted successfully Conclusion: This track looks like CDDA with probability 100%

8 -===- E:\MUSIC\Howard Shore - The Lord Of The Rings Trilogy [FLAC]\CD 2\08 - May It Be (Vocal Version featuring Tara Scammell).flac Extracted successfully Conclusion: This track looks like CDDA with probability 100%

9 -===- E:\MUSIC\Howard Shore - The Lord Of The Rings Trilogy [FLAC]\CD 2\09 - Into The West (Vocal Version featuring Helen Hobson).flac Extracted successfully Conclusion: This track looks like CDDA with probability 100%
 
REM GENRE SoundtrackREM DATE 2004REM DISCID 5F0B4009REM COMMENT "ExactAudioCopy v0.99pb5"PERFORMER "Howard Shore"TITLE "The Lord Of The Rings Trilogy - CD2"FILE "01 - Hope and Memory , Minas Tirith.wav" WAVE TRACK 01 AUDIO TITLE "Hope and Memory / Minas Tirith" PERFORMER "Howard Shore" INDEX 01 00:00:00FILE "02 - The White Tree.wav" WAVE TRACK 02 AUDIO TITLE "The White Tree" PERFORMER "Howard Shore" INDEX 01 00:00:00FILE "03 - Twilight and Shadow.wav" WAVE TRACK 03 AUDIO TITLE "Twilight and Shadow" PERFORMER "Howard Shore" INDEX 01 00:00:00FILE "04 - The Fields of Pelennor.wav" WAVE TRACK 04 AUDIO TITLE "The Fields of Pelennor" PERFORMER "Howard Shore" INDEX 01 00:00:00FILE "05 - The Return of the King , Finale.wav" WAVE TRACK 05 AUDIO TITLE "The Return of the King / Finale" PERFORMER "Howard Shore" INDEX 01 00:00:00FILE "06 - Into The West.wav" WAVE TRACK 06 AUDIO TITLE "Into The West" PERFORMER "Howard Shore" INDEX 01 00:00:00FILE "07 - Gollum's Song (Vocal Version featuring Helen Hobson).wav" WAVE TRACK 07 AUDIO TITLE "Gollum's Song (Vocal Version featuring Helen Hobson)" PERFORMER "Howard Shore" INDEX 01 00:00:00FILE "08 - May It Be (Vocal Version featuring Tara Scammell).wav" WAVE TRACK 08 AUDIO TITLE "May It Be (Vocal Version featuring Tara Scammell)" PERFORMER "Howard Shore" INDEX 01 00:00:00FILE "09 - Into The West (Vocal Version featuring Helen Hobson).wav" WAVE TRACK 09 AUDIO TITLE "Into The West (Vocal Version featuring Helen Hobson)" PERFORMER "Howard Shore" INDEX 01 00:00:00


Трекер:  [ 20-Дек-2010 15:53 ]

  

Скачать .torrent

Размер .torrent файла 12 KB


Размер: 518 MB
Хэш (hash) релиза: 4ba2dbcdf501774d8e59565a2d8d0d892405228d

bot

Топик был перенесен в форум Саундтреки к фильмам и мультфильмам (lossless)

Перенес AqvaGen

Хотите добавить комментарий к записи скачать торрент Властелин колец: Tрилогия The Lord of the Rings: Trilogy

!Обратная связь