Скачать через торрент музыку Побег из Вегаса Get Him To The Greek бесплатно без регистрации torrent

Статистика раздачи
Размер:  331 MB   |    Зарегистрирован:  7 лет 7 месяцев   |    .torrent скачан:  48 раз   |   
Раздают:  1  
   
загрузка...
 
Автор Сообщение

AqvaGen


Побег из Вегаса / Get Him To The Greek

Жанр: Soundtrack
Год выпуска диска: 2010
Производитель диска: USA
Аудио кодек: FLAC
Тип рипа: tracks+.cue
Битрейт аудио: lossless
Продолжительность: 00:46:16

01 - Infant Sorrow - Just Say Yes (02:19)
02 - Infant Sorrow - Gang of Lust (02:04)
03 - Infant Sorrow - Furry Walls (03:08)
04 - Infant Sorrow - Going Up (04:08)
05 - Infant Sorrow - Bangers Beans & Mash (03:33)
06 - Infant Sorrow - The Clap (02:45)
07 - Infant Sorrow - I Am Jesus (02:39)
08 - Infant Sorrow - Riding Daphne (03:29)
09 - Infant Sorrow - F.O.H. (03:53)
10 - Infant Sorrow - Yeah Yeah Oi Oi (02:54)
11 - Infant Sorrow - African Child (Trapped in Me) (03:07)
12 - Infant Sorrow - Little Bird (03:25)
13 - Infant Sorrow - Searching for a Father (03:45)
14 - Jackie Q feat. Aldous Snow - Supertight (02:38)
15 - Jackie Q - Ring 'Round (02:30)

 
Exact Audio Copy V0.99 prebeta 3 from 28. July 2007

EAC extraction logfile from 13. July 2010, 20:05

Infant Sorrow / Get Him To The Greek

Used drive : SONY DVD RW DRU-190A Adapter: 0 ID: 0

Read mode : SecureUtilize accurate stream : YesDefeat audio cache : YesMake use of C2 pointers : No

Read offset correction : 6Overread into Lead-In and Lead-Out : NoFill up missing offset samples with silence : YesDelete leading and trailing silent blocks : NoNull samples used in CRC calculations : YesUsed interface : Native Win32 interface for Win NT & 2000Gap handling : Appended to previous track

Used output format : User Defined EncoderSelected bitrate : 320 kBit/sQuality : HighAdd ID3 tag : NoCommand line compressor : C:\Program Files (x86)\FLAC\flac.exeAdditional command line options : -V -8 -T "artist=%a" -T "title=%t" -T "album=%g" -T "date=%y" -T "tracknumber=%n" -T "genre=%m" %s

TOC of the extracted CD

Track | Start | Length | Start sector | End sector --------------------------------------------------------- 1 | 0:00.00 | 2:18.55 | 0 | 10404 2 | 2:18.55 | 2:04.02 | 10405 | 19706 3 | 4:22.57 | 3:08.03 | 19707 | 33809 4 | 7:30.60 | 4:08.05 | 33810 | 52414 5 | 11:38.65 | 3:33.27 | 52415 | 68416 6 | 15:12.17 | 2:44.70 | 68417 | 80786 7 | 17:57.12 | 2:39.08 | 80787 | 92719 8 | 20:36.20 | 3:28.42 | 92720 | 108361 9 | 24:04.62 | 3:53.23 | 108362 | 125859 10 | 27:58.10 | 2:54.00 | 125860 | 138909 11 | 30:52.10 | 3:06.55 | 138910 | 152914 12 | 33:58.65 | 3:25.20 | 152915 | 168309 13 | 37:24.10 | 3:45.10 | 168310 | 185194 14 | 41:09.20 | 2:38.00 | 185195 | 197044 15 | 43:47.20 | 2:29.50 | 197045 | 208269

Track 1

Filename C:\Infant Sorrow - 2010 - Get Him To The Greek\01 - Just Say Yes.wav

Pre-gap length 0:00:02.00

Peak level 100.0 % Track quality 100.0 % Test CRC 32317E7F Copy CRC 32317E7F Track not present in AccurateRip database Copy OK

Track 2

Filename C:\Infant Sorrow - 2010 - Get Him To The Greek\02 - Gang of Lust.wav

Peak level 100.0 % Track quality 100.0 % Test CRC 0696922C Copy CRC 0696922C Track not present in AccurateRip database Copy OK

Track 3

Filename C:\Infant Sorrow - 2010 - Get Him To The Greek\03 - Furry Walls.wav

Pre-gap length 0:00:00.60

Peak level 100.0 % Track quality 100.0 % Test CRC 4B2E1612 Copy CRC 4B2E1612 Track not present in AccurateRip database Copy OK

Track 4

Filename C:\Infant Sorrow - 2010 - Get Him To The Greek\04 - Going Up.wav

Peak level 100.0 % Track quality 99.9 % Test CRC 82B64EBA Copy CRC 82B64EBA Track not present in AccurateRip database Copy OK

Track 5

Filename C:\Infant Sorrow - 2010 - Get Him To The Greek\05 - Bangers Beans & Mash.wav

Pre-gap length 0:00:01.06

Peak level 100.0 % Track quality 100.0 % Test CRC D65D2C0C Copy CRC D65D2C0C Track not present in AccurateRip database Copy OK

Track 6

Filename C:\Infant Sorrow - 2010 - Get Him To The Greek\06 - The Clap.wav

Pre-gap length 0:00:00.36

Peak level 97.7 % Track quality 100.0 % Test CRC F8C99310 Copy CRC F8C99310 Track not present in AccurateRip database Copy OK

Track 7

Filename C:\Infant Sorrow - 2010 - Get Him To The Greek\07 - I Am Jesus.wav

Pre-gap length 0:00:00.29

Peak level 100.0 % Track quality 100.0 % Test CRC 860D5667 Copy CRC 860D5667 Track not present in AccurateRip database Copy OK

Track 8

Filename C:\Infant Sorrow - 2010 - Get Him To The Greek\08 - Riding Daphne.wav

Pre-gap length 0:00:00.04

Peak level 100.0 % Track quality 99.9 % Test CRC 4CA1B97D Copy CRC 4CA1B97D Track not present in AccurateRip database Copy OK

Track 9

Filename C:\Infant Sorrow - 2010 - Get Him To The Greek\09 - F.O.H..wav

Pre-gap length 0:00:00.02

Peak level 100.0 % Track quality 100.0 % Test CRC 321A6894 Copy CRC 321A6894 Track not present in AccurateRip database Copy OK

Track 10

Filename C:\Infant Sorrow - 2010 - Get Him To The Greek\10 - Yeah Yeah Oi Oi.wav

Pre-gap length 0:00:00.80

Peak level 100.0 % Track quality 99.9 % Test CRC 8B29FA3F Copy CRC 8B29FA3F Track not present in AccurateRip database Copy OK

Track 11

Filename C:\Infant Sorrow - 2010 - Get Him To The Greek\11 - African Child (Trapped in Me).wav

Pre-gap length 0:00:01.26

Peak level 100.0 % Track quality 100.0 % Test CRC E47902CA Copy CRC E47902CA Track not present in AccurateRip database Copy OK

Track 12

Filename C:\Infant Sorrow - 2010 - Get Him To The Greek\12 - Little Bird.wav

Pre-gap length 0:00:00.60

Peak level 100.0 % Track quality 100.0 % Test CRC 36DADADD Copy CRC 36DADADD Track not present in AccurateRip database Copy OK

Track 13

Filename C:\Infant Sorrow - 2010 - Get Him To The Greek\13 - Searching for a Father.wav

Pre-gap length 0:00:00.66

Peak level 100.0 % Track quality 99.9 % Test CRC 333DEDB0 Copy CRC 333DEDB0 Track not present in AccurateRip database Copy OK

Track 14

Filename C:\Infant Sorrow - 2010 - Get Him To The Greek\14 - Supertight.wav

Pre-gap length 0:00:02.06

Peak level 100.0 % Track quality 99.8 % Test CRC 487E52A5 Copy CRC 487E52A5 Track not present in AccurateRip database Copy OK

Track 15

Filename C:\Infant Sorrow - 2010 - Get Him To The Greek\15 - Ring 'Round.wav

Peak level 97.7 % Track quality 100.0 % Test CRC DEDFA52F Copy CRC DEDFA52F Track not present in AccurateRip database Copy OK

None of the tracks are present in the AccurateRip database

No errors occurred

End of status report
 
REM GENRE SoundtrackREM DATE 2010REM DISCID B70AD80FREM COMMENT "ExactAudioCopy v0.99pb3"FILE "01 - Just Say Yes.wav" WAVE TRACK 01 AUDIO INDEX 01 00:00:00FILE "02 - Gang of Lust.wav" WAVE TRACK 02 AUDIO INDEX 01 00:00:00 TRACK 03 AUDIO INDEX 00 02:03:32FILE "03 - Furry Walls.wav" WAVE INDEX 01 00:00:00FILE "04 - Going Up.wav" WAVE TRACK 04 AUDIO INDEX 01 00:00:00 TRACK 05 AUDIO INDEX 00 04:07:00FILE "05 - Bangers Beans & Mash.wav" WAVE INDEX 01 00:00:00 TRACK 06 AUDIO INDEX 00 03:33:00FILE "06 - The Clap.wav" WAVE INDEX 01 00:00:00 TRACK 07 AUDIO INDEX 00 02:44:48FILE "07 - I Am Jesus.wav" WAVE INDEX 01 00:00:00 TRACK 08 AUDIO INDEX 00 02:39:05FILE "08 - Riding Daphne.wav" WAVE INDEX 01 00:00:00 TRACK 09 AUDIO INDEX 00 03:28:40FILE "09 - F.O.H..wav" WAVE INDEX 01 00:00:00 TRACK 10 AUDIO INDEX 00 03:52:38FILE "10 - Yeah Yeah Oi Oi.wav" WAVE INDEX 01 00:00:00 TRACK 11 AUDIO INDEX 00 02:52:55FILE "11 - African Child (Trapped in Me).wav" WAVE INDEX 01 00:00:00 TRACK 12 AUDIO INDEX 00 03:06:10FILE "12 - Little Bird.wav" WAVE INDEX 01 00:00:00 TRACK 13 AUDIO INDEX 00 03:24:45FILE "13 - Searching for a Father.wav" WAVE INDEX 01 00:00:00 TRACK 14 AUDIO INDEX 00 03:43:05FILE "14 - Supertight.wav" WAVE INDEX 01 00:00:00FILE "15 - Ring 'Round.wav" WAVE TRACK 15 AUDIO INDEX 01 00:00:00


Трекер:  [ 20-Дек-2010 15:50 ]

  

Скачать .torrent

Размер .torrent файла 14 KB


Размер: 331 MB
Хэш (hash) релиза: 46fa870957d5a2e4429fa429daa4f836ddbd31f8

Торренты, похожие на Побег из Вегаса Get Him To The Greek скачать торрент

Форум Название Автор Размер S L Добавлен
Саундтреки к фильмам и мультфильмам (mp3) ·· (Soundtrack) Побег из Вегаса / Get Him To The Greek (Infant Sorrow) [Deluxe Edition] - 2010, MP3 (tracks), 320 kbps Phoenix 142253324136 MB 0 0 1292264990

21:29

13-Дек-10

bot

Топик был перенесен в форум Саундтреки к фильмам и мультфильмам (lossless)

Перенес AqvaGen

Хотите добавить комментарий к записи скачать торрент Побег из Вегаса Get Him To The Greek

!Обратная связь