Скачать через торрент музыку Книга Илая The Book Of Eli бесплатно без регистрации torrent

Статистика раздачи
Размер:  203 MB   |    Зарегистрирован:  7 лет 10 месяцев   |    .torrent скачан:  71 раз   |   
Раздают:  1  
   
загрузка...
 
Автор Сообщение

AqvaGen


Книга Илая / The Book Of Eli (Atticus Ross)


Жанр: Score
Год выпуска : 2010
Лейбл: Reprise Records
Аудио кодек: FLAC
Тип рипа: tracks+.cue
Битрейт аудио: lossless
Продолжительность: 00:46:54
01. Panoramic (7:11)
02. Outland (3:08)
03. The Journey (4:26)
04. Amen (1:51)
05. The Convoy (1:50)
06. Solara Violated (1:05)
07. Safe (1:22)
08. Human (2:07)
09. Meant To Be Shared (2:45)
10. The Passenger (1:56)
11. Den Of Vice (2:15)
12. Gattling (1:23)
13. Blind Faith (2:01)
14. Convoy Destruct (4:54)
15. Movement (3:04)
16. Carnegie's Demise (3:37)
17. The Purpose (2:00)
 
Exact Audio Copy V0.99 prebeta 5 from 4. May 2009

EAC extraction logfile from 17. January 2010, 17:09

Atticus Ross / The Book Of Eli

Used drive : Optiarc DVD RW AD-7240S Adapter: 0 ID: 2

Read mode : SecureUtilize accurate stream : YesDefeat audio cache : YesMake use of C2 pointers : No

Read offset correction : 48Overread into Lead-In and Lead-Out : NoFill up missing offset samples with silence : YesDelete leading and trailing silent blocks : NoNull samples used in CRC calculations : YesUsed interface : Native Win32 interface for Win NT & 2000Gap handling : Appended to previous track

Used output format : User Defined EncoderSelected bitrate : 128 kBit/sQuality : HighAdd ID3 tag : NoCommand line compressor : C:\Program Files (x86)\Exact Audio Copy\Flac\flac.exeAdditional command line options : -V -8 -T "artist=%a" -T "title=%t" -T "album=%g" -T "date=%y" -T "tracknumber=%n" -T "genre=%m" %s

TOC of the extracted CD

Track | Start | Length | Start sector | End sector --------------------------------------------------------- 1 | 0:02.17 | 7:11.32 | 167 | 32523 2 | 7:13.49 | 3:07.44 | 32524 | 46592 3 | 10:21.18 | 4:26.20 | 46593 | 66562 4 | 14:47.38 | 1:50.63 | 66563 | 74875 5 | 16:38.26 | 1:50.11 | 74876 | 83136 6 | 18:28.37 | 1:04.64 | 83137 | 88000 7 | 19:33.26 | 1:22.12 | 88001 | 94162 8 | 20:55.38 | 2:06.44 | 94163 | 103656 9 | 23:02.07 | 2:45.11 | 103657 | 116042 10 | 25:47.18 | 1:55.68 | 116043 | 124735 11 | 27:43.11 | 2:14.67 | 124736 | 134852 12 | 29:58.03 | 1:23.29 | 134853 | 141106 13 | 31:21.32 | 2:00.59 | 141107 | 150165 14 | 33:22.16 | 4:54.20 | 150166 | 172235 15 | 38:16.36 | 3:04.23 | 172236 | 186058 16 | 41:20.59 | 3:36.54 | 186059 | 202312 17 | 44:57.38 | 1:59.49 | 202313 | 211286

Track 1

Filename M:\EAC Rips\Atticus Ross\The Book Of Eli[FLAC]\01 - Panoramic.wav

Pre-gap length 0:00:04.17

Peak level 98.9 % Track quality 100.0 % Test CRC 26AAAF8B Copy CRC 26AAAF8B Track not present in AccurateRip database Copy OK

Track 2

Filename M:\EAC Rips\Atticus Ross\The Book Of Eli[FLAC]\02 - Outland.wav

Peak level 100.0 % Track quality 99.8 % Test CRC 8141FDC7 Copy CRC 8141FDC7 Track not present in AccurateRip database Copy OK

Track 3

Filename M:\EAC Rips\Atticus Ross\The Book Of Eli[FLAC]\03 - The Journey.wav

Peak level 99.4 % Track quality 100.0 % Test CRC CCDF24CE Copy CRC CCDF24CE Track not present in AccurateRip database Copy OK

Track 4

Filename M:\EAC Rips\Atticus Ross\The Book Of Eli[FLAC]\04 - Amen.wav

Peak level 100.0 % Track quality 100.0 % Test CRC DAC95F30 Copy CRC DAC95F30 Track not present in AccurateRip database Copy OK

Track 5

Filename M:\EAC Rips\Atticus Ross\The Book Of Eli[FLAC]\05 - The Convoy.wav

Peak level 100.0 % Track quality 100.0 % Test CRC 23D7ECA9 Copy CRC 23D7ECA9 Track not present in AccurateRip database Copy OK

Track 6

Filename M:\EAC Rips\Atticus Ross\The Book Of Eli[FLAC]\06 - Solara Violated.wav

Peak level 100.0 % Track quality 100.0 % Test CRC 194F4293 Copy CRC 194F4293 Track not present in AccurateRip database Copy OK

Track 7

Filename M:\EAC Rips\Atticus Ross\The Book Of Eli[FLAC]\07 - Safe.wav

Peak level 99.2 % Track quality 100.0 % Test CRC DF03166B Copy CRC DF03166B Track not present in AccurateRip database Copy OK

Track 8

Filename M:\EAC Rips\Atticus Ross\The Book Of Eli[FLAC]\08 - Human.wav

Peak level 82.1 % Track quality 100.0 % Test CRC A7EF742F Copy CRC A7EF742F Track not present in AccurateRip database Copy OK

Track 9

Filename M:\EAC Rips\Atticus Ross\The Book Of Eli[FLAC]\09 - Meant To Be Shared.wav

Peak level 98.9 % Track quality 100.0 % Test CRC A35BB5A2 Copy CRC A35BB5A2 Track not present in AccurateRip database Copy OK

Track 10

Filename M:\EAC Rips\Atticus Ross\The Book Of Eli[FLAC]\10 - The Passenger.wav

Peak level 99.0 % Track quality 99.8 % Test CRC 14F1A9C2 Copy CRC 14F1A9C2 Track not present in AccurateRip database Copy OK

Track 11

Filename M:\EAC Rips\Atticus Ross\The Book Of Eli[FLAC]\11 - Den Of Vice.wav

Peak level 98.9 % Track quality 100.0 % Test CRC 4F46B312 Copy CRC 4F46B312 Track not present in AccurateRip database Copy OK

Track 12

Filename M:\EAC Rips\Atticus Ross\The Book Of Eli[FLAC]\12 - Gattling.wav

Peak level 100.0 % Track quality 100.0 % Test CRC 6B910868 Copy CRC 6B910868 Track not present in AccurateRip database Copy OK

Track 13

Filename M:\EAC Rips\Atticus Ross\The Book Of Eli[FLAC]\13 - Blind Faith.wav

Peak level 80.7 % Track quality 100.0 % Test CRC F2F85B44 Copy CRC F2F85B44 Track not present in AccurateRip database Copy OK

Track 14

Filename M:\EAC Rips\Atticus Ross\The Book Of Eli[FLAC]\14 - Convoy Destruct.wav

Peak level 99.8 % Track quality 99.8 % Test CRC 79FB30CA Copy CRC 79FB30CA Track not present in AccurateRip database Copy OK

Track 15

Filename M:\EAC Rips\Atticus Ross\The Book Of Eli[FLAC]\15 - Movement.wav

Peak level 99.0 % Track quality 99.9 % Test CRC A0DEA913 Copy CRC A0DEA913 Track not present in AccurateRip database Copy OK

Track 16

Filename M:\EAC Rips\Atticus Ross\The Book Of Eli[FLAC]\16 - Carnegie's Demise.wav

Peak level 99.5 % Track quality 100.0 % Test CRC 82B5D7A7 Copy CRC 82B5D7A7 Track not present in AccurateRip database Copy OK

Track 17

Filename M:\EAC Rips\Atticus Ross\The Book Of Eli[FLAC]\17 - The Purpose.wav

Peak level 99.0 % Track quality 100.0 % Test CRC EA22E670 Copy CRC EA22E670 Track not present in AccurateRip database Copy OK

None of the tracks are present in the AccurateRip database

No errors occurred

End of status report
 
REM GENRE SoundtrackREM DATE 2009REM DISCID EC0AFF11REM COMMENT "ExactAudioCopy v0.99pb5"FILE "01 - Panoramic.wav" WAVE TRACK 01 AUDIO PREGAP 00:02:17 INDEX 01 00:00:00FILE "02 - Outland.wav" WAVE TRACK 02 AUDIO INDEX 01 00:00:00FILE "03 - The Journey.wav" WAVE TRACK 03 AUDIO INDEX 01 00:00:00FILE "04 - Amen.wav" WAVE TRACK 04 AUDIO INDEX 01 00:00:00FILE "05 - The Convoy.wav" WAVE TRACK 05 AUDIO INDEX 01 00:00:00FILE "06 - Solara Violated.wav" WAVE TRACK 06 AUDIO INDEX 01 00:00:00FILE "07 - Safe.wav" WAVE TRACK 07 AUDIO INDEX 01 00:00:00FILE "08 - Human.wav" WAVE TRACK 08 AUDIO INDEX 01 00:00:00FILE "09 - Meant To Be Shared.wav" WAVE TRACK 09 AUDIO INDEX 01 00:00:00FILE "10 - The Passenger.wav" WAVE TRACK 10 AUDIO INDEX 01 00:00:00FILE "11 - Den Of Vice.wav" WAVE TRACK 11 AUDIO INDEX 01 00:00:00FILE "12 - Gattling.wav" WAVE TRACK 12 AUDIO INDEX 01 00:00:00FILE "13 - Blind Faith.wav" WAVE TRACK 13 AUDIO INDEX 01 00:00:00FILE "14 - Convoy Destruct.wav" WAVE TRACK 14 AUDIO INDEX 01 00:00:00FILE "15 - Movement.wav" WAVE TRACK 15 AUDIO INDEX 01 00:00:00FILE "16 - Carnegie's Demise.wav" WAVE TRACK 16 AUDIO INDEX 01 00:00:00FILE "17 - The Purpose.wav" WAVE TRACK 17 AUDIO INDEX 01 00:00:00
 
REM GENRE SoundtrackREM DATE 2010REM DISCID EC0AFF11REM COMMENT "ExactAudioCopy v0.99pb5"PERFORMER "Atticus Ross"TITLE "The Book Of Eli"FILE "01 - Panoramic.wav" WAVE TRACK 01 AUDIO TITLE "Panoramic" PERFORMER "Atticus Ross" PREGAP 00:02:17 INDEX 01 00:00:00FILE "02 - Outland.wav" WAVE TRACK 02 AUDIO TITLE "Outland" PERFORMER "Atticus Ross" INDEX 01 00:00:00FILE "03 - The Journey.wav" WAVE TRACK 03 AUDIO TITLE "The Journey" PERFORMER "Atticus Ross" INDEX 01 00:00:00FILE "04 - Amen.wav" WAVE TRACK 04 AUDIO TITLE "Amen" PERFORMER "Atticus Ross" INDEX 01 00:00:00FILE "05 - The Convoy.wav" WAVE TRACK 05 AUDIO TITLE "The Convoy" PERFORMER "Atticus Ross" INDEX 01 00:00:00FILE "06 - Solara Violated.wav" WAVE TRACK 06 AUDIO TITLE "Solara Violated" PERFORMER "Atticus Ross" INDEX 01 00:00:00FILE "07 - Safe.wav" WAVE TRACK 07 AUDIO TITLE "Safe" PERFORMER "Atticus Ross" INDEX 01 00:00:00FILE "08 - Human.wav" WAVE TRACK 08 AUDIO TITLE "Human" PERFORMER "Atticus Ross" INDEX 01 00:00:00FILE "09 - Meant To Be Shared.wav" WAVE TRACK 09 AUDIO TITLE "Meant To Be Shared" PERFORMER "Atticus Ross" INDEX 01 00:00:00FILE "10 - The Passenger.wav" WAVE TRACK 10 AUDIO TITLE "The Passenger" PERFORMER "Atticus Ross" INDEX 01 00:00:00FILE "11 - Den Of Vice.wav" WAVE TRACK 11 AUDIO TITLE "Den Of Vice" PERFORMER "Atticus Ross" INDEX 01 00:00:00FILE "12 - Gattling.wav" WAVE TRACK 12 AUDIO TITLE "Gattling" PERFORMER "Atticus Ross" INDEX 01 00:00:00FILE "13 - Blind Faith.wav" WAVE TRACK 13 AUDIO TITLE "Blind Faith" PERFORMER "Atticus Ross" INDEX 01 00:00:00FILE "14 - Convoy Destruct.wav" WAVE TRACK 14 AUDIO TITLE "Convoy Destruct" PERFORMER "Atticus Ross" INDEX 01 00:00:00FILE "15 - Movement.wav" WAVE TRACK 15 AUDIO TITLE "Movement" PERFORMER "Atticus Ross" INDEX 01 00:00:00FILE "16 - Carnegie's Demise.wav" WAVE TRACK 16 AUDIO TITLE "Carnegie's Demise" PERFORMER "Atticus Ross" INDEX 01 00:00:00FILE "17 - The Purpose.wav" WAVE TRACK 17 AUDIO TITLE "The Purpose" PERFORMER "Atticus Ross" INDEX 01 00:00:00
 
Started at: понедельник, 18. 01. 2010. - 10:46.57

17 files found

01 -===- C:\Downloads\Music\Другое\The Book Of Eli - 2010\01 - Panoramic.FLAC Extracted successfully Conclusion: This track looks like CDDA with probability 100% Tempfile successfully deleted.

02 -===- C:\Downloads\Music\Другое\The Book Of Eli - 2010\02 - Outland.FLAC Extracted successfully Conclusion: This track looks like CDDA with probability 100% Tempfile successfully deleted.

03 -===- C:\Downloads\Music\Другое\The Book Of Eli - 2010\03 - The Journey.FLAC Extracted successfully Conclusion: This track looks like CDDA with probability 100% Tempfile successfully deleted.

04 -===- C:\Downloads\Music\Другое\The Book Of Eli - 2010\04 - Amen.FLAC Extracted successfully Conclusion: This track looks like CDDA with probability 100% Tempfile successfully deleted.

05 -===- C:\Downloads\Music\Другое\The Book Of Eli - 2010\05 - The Convoy.FLAC Extracted successfully Conclusion: This track looks like CDDA with probability 100% Tempfile successfully deleted.

06 -===- C:\Downloads\Music\Другое\The Book Of Eli - 2010\06 - Solara Violated.FLAC Extracted successfully Conclusion: This track looks like CDDA with probability 100% Tempfile successfully deleted.

07 -===- C:\Downloads\Music\Другое\The Book Of Eli - 2010\07 - Safe.FLAC Extracted successfully Conclusion: This track looks like CDDA with probability 100% Tempfile successfully deleted.

08 -===- C:\Downloads\Music\Другое\The Book Of Eli - 2010\08 - Human.FLAC Extracted successfully Conclusion: This track looks like CDDA with probability 100% Tempfile successfully deleted.

09 -===- C:\Downloads\Music\Другое\The Book Of Eli - 2010\09 - Meant To Be Shared.FLAC Extracted successfully Conclusion: This track looks like CDDA with probability 100% Tempfile successfully deleted.

10 -===- C:\Downloads\Music\Другое\The Book Of Eli - 2010\10 - The Passenger.FLAC Extracted successfully Conclusion: This track looks like CDDA with probability 99% Tempfile successfully deleted.

11 -===- C:\Downloads\Music\Другое\The Book Of Eli - 2010\11 - Den Of Vice.FLAC Extracted successfully Conclusion: This track looks like CDDA with probability 100% Tempfile successfully deleted.

12 -===- C:\Downloads\Music\Другое\The Book Of Eli - 2010\12 - Gattling.FLAC Extracted successfully Conclusion: This track looks like CDDA with probability 100% Tempfile successfully deleted.

13 -===- C:\Downloads\Music\Другое\The Book Of Eli - 2010\13 - Blind Faith.FLAC Extracted successfully Conclusion: This track looks like CDDA with probability 99% Tempfile successfully deleted.

14 -===- C:\Downloads\Music\Другое\The Book Of Eli - 2010\14 - Convoy Destruct.FLAC Extracted successfully Conclusion: This track looks like CDDA with probability 99% Tempfile successfully deleted.

15 -===- C:\Downloads\Music\Другое\The Book Of Eli - 2010\15 - Movement.FLAC Extracted successfully Conclusion: This track looks like CDDA with probability 100% Tempfile successfully deleted.

16 -===- C:\Downloads\Music\Другое\The Book Of Eli - 2010\16 - Carnegie's Demise.FLAC Extracted successfully Conclusion: This track looks like CDDA with probability 100% Tempfile successfully deleted.

17 -===- C:\Downloads\Music\Другое\The Book Of Eli - 2010\17 - The Purpose.FLAC Extracted successfully Conclusion: This track looks like CDDA with probability 100% Tempfile successfully deleted.

Finished at: понедельник, 18. 01. 2010. - 10:56.31 (operation time: 0:09.33)


Трекер:  [ 19-Дек-2010 15:16 ]

  

Скачать .torrent

Размер .torrent файла 17 KB


Размер: 203 MB
Хэш (hash) релиза: bbbe5516ef4d0a936574505294ec9fe5850d5f18

Торренты, похожие на Книга Илая The Book Of Eli скачать торрент

Форум Название Автор Размер S L Добавлен
Саундтреки к фильмам и мультфильмам (mp3) ·· (Score) Книга Илая / The Book Of Eli (by Atticus Ross) - 2010, MP3, 320 kbps Phoenix 140839083134 MB 0 0 1292265031

21:30

13-Дек-10

bot

Топик был перенесен в форум Саундтреки к фильмам и мультфильмам (lossless)

Перенес AqvaGen

Хотите добавить комментарий к записи скачать торрент Книга Илая The Book Of Eli

!Обратная связь