Скачать через торрент музыку Шрек навсегда Shrek Forever After бесплатно без регистрации torrent

Статистика раздачи
Размер:  224 MB   |    Зарегистрирован:  7 лет 7 месяцев   |    .torrent скачан:  66 раз   |   
Раздают:  1  
   
загрузка...
 
Автор Сообщение

AqvaGen


Shrek Forever After
(Шрек навсегда)

Жанр: Score
Композитор: Harry Gregson Williams
Год выпуска диска: 2010
Страна-производитель диска: US
Издатель (лейбл): Varese Sarabande
Номер по каталогу: VSD-7024
Аудио кодек: WavPack (*.wv)
Тип рипа: image+.cue
Битрейт аудио: lossless
Продолжительность: 42:05
Источник: ED2K
Наличие сканов в содержимом раздачи: да
Треклист:
01. Once (More) Upon A Time (01:59)
02. Rumpelstiltskin (03:30)
03. Same Day, Every Day (03:32)
04. Shrek Signs The Deal (03:36)
05. Rumpel’s Kingdom (04:21)
06. The Exit Clause (02:36)
07. Ogre Resistance (01:50)
08. "Din Din!" (00:28)
09. Rumpel’s Announcement (03:17)
10. Planning The Attack (02:10)
11. Fiona Doesn’t Love Me (03:17)
12. Deal Of A Lifetime (03:04)
13. The Main Event (01:49)
14. Rumpel’s Defeat (02:22)
15. His Day Is Up (02:43)
16. Never Been Better (01:31)
 
Exact Audio Copy V0.99 prebeta 4 from 23. January 2008

EAC extraction logfile from 26. August 2010, 17:23

Harry Gregson-Williams / Shrek Forever After

Used drive : HL-DT-STCD-RW GCE-8523B Adapter: 1 ID: 1

Read mode : SecureUtilize accurate stream : YesDefeat audio cache : YesMake use of C2 pointers : No

Read offset correction : 6Overread into Lead-In and Lead-Out : NoFill up missing offset samples with silence : YesDelete leading and trailing silent blocks : NoNull samples used in CRC calculations : YesUsed interface : Installed external ASPI interface

Used output format : User Defined EncoderSelected bitrate : 320 kBit/sQuality : HighAdd ID3 tag : NoCommand line compressor : C:\Documents and Settings\Ricardo\Mis documentos\Mis archivos recibidos\Codecs\wavpack.exeAdditional command line options : -w "Artist=%a" -w "Album=%g" -w "Year=%y" -w "Genre=%m" -hh -m -t %s %d

TOC of the extracted CD

Track | Start | Length | Start sector | End sector --------------------------------------------------------- 1 | 0:00.00 | 1:59.33 | 0 | 8957 2 | 1:59.33 | 3:31.48 | 8958 | 24830 3 | 5:31.06 | 3:33.02 | 24831 | 40807 4 | 9:04.08 | 3:38.33 | 40808 | 57190 5 | 12:42.41 | 4:23.05 | 57191 | 76920 6 | 17:05.46 | 2:37.58 | 76921 | 88753 7 | 19:43.29 | 1:52.27 | 88754 | 97180 8 | 21:35.56 | 0:29.60 | 97181 | 99415 9 | 22:05.41 | 3:19.38 | 99416 | 114378 10 | 25:25.04 | 2:12.00 | 114379 | 124278 11 | 27:37.04 | 3:19.07 | 124279 | 139210 12 | 30:56.11 | 3:04.67 | 139211 | 153077 13 | 34:01.03 | 1:51.48 | 153078 | 161450 14 | 35:52.51 | 2:22.55 | 161451 | 172155 15 | 38:15.31 | 2:45.49 | 172156 | 184579 16 | 41:01.05 | 1:31.11 | 184580 | 191415

Range status and errors

Selected range

Filename H:\Descargas soulseek\Harry Gregson-Williams - Shrek Forever After.wav

Peak level 97.7 % Range quality 100.0 % Test CRC 78F6C225 Copy CRC 78F6C225 Copy OK

No errors occurred

End of status report


Трекер:  [ 20-Дек-2010 15:48 ]

  

Скачать .torrent

Размер .torrent файла 19 KB


Размер: 224 MB
Хэш (hash) релиза: 576cf4f61db08fe9ec48c397c0700880736e7f94

bot

Топик был перенесен в форум Саундтреки к фильмам и мультфильмам (lossless)

Перенес AqvaGen

Хотите добавить комментарий к записи скачать торрент Шрек навсегда Shrek Forever After

!Обратная связь