Скачать через торрент музыку Планета Ка-Пэкс | K-Pax бесплатно без регистрации torrent

Статистика раздачи
Размер:  211 MB   |    Зарегистрирован:  7 лет 7 месяцев   |    .torrent скачан:  93 раза   |   
Раздают:  1  
   
загрузка...
 
Автор Сообщение

FRANKS

avatar FRANKS


Edward Shearmur - K-Pax

Жанр: Score
Название фильма: Планета Ка-Пэкс / K-PAX
Композитор: Edward Shearmur
Производитель диска: Europe
Год выпуска: 2001
Аудио кодек: FLAC
Тип рипа: tracks+.cue
Битрейт аудио: lossless
Продолжительность: 00:00:43:17
Источник: What.cd (theisness)
Трэклист:
01. Grand Central (4:39) 749 kBit/s
02. Good Morning Bess (2:48) 629 kBit/s
03. Taxi Ride (3:51) 719 kBit/s
04. Constellation Lyra (2:41) 698 kBit/s
05. Bluebird (3:52) 550 kBit/s
06. 4th Of July (4:15) 592 kBit/s
07. Prot Missing (2:30) 677 kBit/s
08. Sarah (3:03) 627 kBit/s
09. New Mexico (6:25) 567 kBit/s
10. Powell's Return (1:11) 489 kBit/s
11. July 27th (4:41) 653 kBit/s
12. Coda (3:21) 502 kBit/s

 
Exact Audio Copy V0.99 prebeta 4 from 23. January 2008

EAC extraction logfile from 15. June 2008, 17:51

Edward Shearmur / K-Pax OST

Used drive : SONY CD-RW CRX320E Adapter: 1 ID: 0

Read mode : SecureUtilize accurate stream : YesDefeat audio cache : YesMake use of C2 pointers : No

Read offset correction : 6Overread into Lead-In and Lead-Out : NoFill up missing offset samples with silence : YesDelete leading and trailing silent blocks : NoNull samples used in CRC calculations : YesUsed interface : Native Win32 interface for Win NT & 2000Gap handling : Appended to previous track

Used output format : User Defined EncoderSelected bitrate : 320 kBit/sQuality : HighAdd ID3 tag : NoCommand line compressor : C:\Program Files\FLAC\flac.exeAdditional command line options : -V -8 -T "artist=%a" -T "title=%t" -T "album=%g" -T "date=%y" -T "tracknumber=%n/12" -T "comment=Encoded by themagicke of OiNK (RIP)" %s

TOC of the extracted CD

Track | Start | Length | Start sector | End sector --------------------------------------------------------- 1 | 0:00.00 | 4:38.72 | 0 | 20921 2 | 4:38.72 | 2:47.60 | 20922 | 33506 3 | 7:26.57 | 3:50.71 | 33507 | 50827 4 | 11:17.53 | 2:41.33 | 50828 | 62935 5 | 13:59.11 | 3:52.22 | 62936 | 80357 6 | 17:51.33 | 4:14.50 | 80358 | 99457 7 | 22:06.08 | 2:30.12 | 99458 | 110719 8 | 24:36.20 | 3:03.30 | 110720 | 124474 9 | 27:39.50 | 6:24.38 | 124475 | 153312 10 | 34:04.13 | 1:11.35 | 153313 | 158672 11 | 35:15.48 | 4:40.46 | 158673 | 179718 12 | 39:56.19 | 3:20.70 | 179719 | 194788

Track 1

Filename D:\magicke\~ rips\01 - Grand Central.wav

Pre-gap length 0:00:02.00

Peak level 95.6 % Track quality 100.0 % Test CRC 16E0A6F8 Copy CRC 16E0A6F8 Cannot be verified as accurate (confidence 2) [B8435773], AccurateRip returned [E93CEF74] Copy OK

Track 2

Filename D:\magicke\~ rips\02 - Good Morning Bess.wav

Peak level 78.9 % Track quality 99.9 % Test CRC AAE222E3 Copy CRC AAE222E3 Cannot be verified as accurate (confidence 2) [36598BD9], AccurateRip returned [B3756B1C] Copy OK

Track 3

Filename D:\magicke\~ rips\03 - Taxi Ride.wav

Peak level 95.2 % Track quality 99.9 % Test CRC 8D2FF8D1 Copy CRC 8D2FF8D1 Cannot be verified as accurate (confidence 2) [C77FF6F8], AccurateRip returned [426327BE] Copy OK

Track 4

Filename D:\magicke\~ rips\04 - Constellation Lyra.wav

Peak level 95.0 % Track quality 99.9 % Test CRC EF62FE33 Copy CRC EF62FE33 Cannot be verified as accurate (confidence 2) [74F380BE], AccurateRip returned [CA723F40] Copy OK

Track 5

Filename D:\magicke\~ rips\05 - Bluebird.wav

Peak level 93.1 % Track quality 99.9 % Test CRC 6254CF61 Copy CRC 6254CF61 Cannot be verified as accurate (confidence 2) [C75D3638], AccurateRip returned [27130836] Copy OK

Track 6

Filename D:\magicke\~ rips\06 - 4th Of July.wav

Peak level 96.0 % Track quality 99.9 % Test CRC DF0D4E9F Copy CRC DF0D4E9F Cannot be verified as accurate (confidence 2) [F3FDA161], AccurateRip returned [6123508B] Copy OK

Track 7

Filename D:\magicke\~ rips\07 - Prot Missing.wav

Peak level 95.1 % Track quality 99.9 % Test CRC 5AD8B2C8 Copy CRC 5AD8B2C8 Cannot be verified as accurate (confidence 2) [1BDAEEC3], AccurateRip returned [E8261D93] Copy OK

Track 8

Filename D:\magicke\~ rips\08 - Sarah.wav

Peak level 94.9 % Track quality 100.0 % Test CRC 07252346 Copy CRC 07252346 Cannot be verified as accurate (confidence 2) [D4B05CCE], AccurateRip returned [3E8C6989] Copy OK

Track 9

Filename D:\magicke\~ rips\09 - New Mexico.wav

Peak level 88.1 % Track quality 99.9 % Test CRC F1574A2C Copy CRC F1574A2C Cannot be verified as accurate (confidence 2) [FCD317CB], AccurateRip returned [BD8BB34A] Copy OK

Track 10

Filename D:\magicke\~ rips\10 - Powell's Return.wav

Peak level 63.4 % Track quality 100.0 % Test CRC 9864D730 Copy CRC 9864D730 Cannot be verified as accurate (confidence 2) [2F0507B8], AccurateRip returned [B7DA28BE] Copy OK

Track 11

Filename D:\magicke\~ rips\11 - July 27th.wav

Peak level 95.5 % Track quality 100.0 % Test CRC FE0D5AFE Copy CRC FE0D5AFE Cannot be verified as accurate (confidence 2) [82492ACF], AccurateRip returned [B6DBFFF0] Copy OK

Track 12

Filename D:\magicke\~ rips\12 - Coda.wav

Peak level 59.8 % Track quality 99.9 % Test CRC BC118525 Copy CRC BC118525 Track not present in AccurateRip database Copy OK

11 track(s) could not be verified as accurate 1 track(s) not present in the AccurateRip database

No tracks could be verified as accurateYou may have a different pressing from the one(s) in the database

No errors occurred

End of status report
 
REM DATE 2001REM DISCID A70A250CREM COMMENT "ExactAudioCopy v0.99pb4"PERFORMER "Edward Shearmur"TITLE "K-Pax OST"FILE "01 - Grand Central.wav" WAVE TRACK 01 AUDIO TITLE "Grand Central" PERFORMER "Edward Shearmur" INDEX 01 00:00:00FILE "02 - Good Morning Bess.wav" WAVE TRACK 02 AUDIO TITLE "Good Morning Bess" PERFORMER "Edward Shearmur" INDEX 01 00:00:00FILE "03 - Taxi Ride.wav" WAVE TRACK 03 AUDIO TITLE "Taxi Ride" PERFORMER "Edward Shearmur" INDEX 01 00:00:00FILE "04 - Constellation Lyra.wav" WAVE TRACK 04 AUDIO TITLE "Constellation Lyra" PERFORMER "Edward Shearmur" INDEX 01 00:00:00FILE "05 - Bluebird.wav" WAVE TRACK 05 AUDIO TITLE "Bluebird" PERFORMER "Edward Shearmur" INDEX 01 00:00:00FILE "06 - 4th Of July.wav" WAVE TRACK 06 AUDIO TITLE "4th Of July" PERFORMER "Edward Shearmur" INDEX 01 00:00:00FILE "07 - Prot Missing.wav" WAVE TRACK 07 AUDIO TITLE "Prot Missing" PERFORMER "Edward Shearmur" INDEX 01 00:00:00FILE "08 - Sarah.wav" WAVE TRACK 08 AUDIO TITLE "Sarah" PERFORMER "Edward Shearmur" INDEX 01 00:00:00FILE "09 - New Mexico.wav" WAVE TRACK 09 AUDIO TITLE "New Mexico" PERFORMER "Edward Shearmur" INDEX 01 00:00:00FILE "10 - Powell's Return.wav" WAVE TRACK 10 AUDIO TITLE "Powell's Return" PERFORMER "Edward Shearmur" INDEX 01 00:00:00FILE "11 - July 27th.wav" WAVE TRACK 11 AUDIO TITLE "July 27th" PERFORMER "Edward Shearmur" INDEX 01 00:00:00FILE "12 - Coda.wav" WAVE TRACK 12 AUDIO TITLE "Coda" PERFORMER "Edward Shearmur" INDEX 01 00:00:00


Трекер:  [ 30-Дек-2010 23:05 ]

  

Скачать .torrent

Размер .torrent файла 18 KB


Размер: 211 MB
Хэш (hash) релиза: 68e0d5c838649e0264371d7966572aa79547c0cc

bot

Топик был перенесен в форум Саундтреки к фильмам и мультфильмам (lossless)

Перенес FRANKS

Хотите добавить комментарий к записи скачать торрент Планета Ка-Пэкс | K-Pax

!Обратная связь