Скачать через торрент музыку Матрица The Matrix; Матрица: Перезагрузка бесплатно без регистрации torrent

Статистика раздачи
Размер:  1.51 GB   |    Зарегистрирован:  7 лет 10 месяцев   |    .torrent скачан:  136 раз   |   
Раздают:  1  
   
загрузка...
 
Автор Сообщение

AqvaGen


Матрица / The Matrix (Complete) (2CD) (1999)
Матрица: Перезагрузка / The Matrix: Reloaded (Complete) (2CD) (2003)
Матрица: Революция / The Matrix: Revolutions (Complete) (2CD) (2003)


Жанр: Score
Композитор: Don Davis
Производитель диска: USA
Аудио кодек: FLAC
Тип рипа: tracks+.cue
Битрейт аудио: lossless
Источник: Bootleg CD rips
 
CD1
01. Opening Sequence (0:50)
02. Trinity In A Jam (5:58)
03. The Matrix Has You (0:31)
04. The White Rabbit (0:15)
05. They're Coming For You (3:22)
06. In Custody (0:47)
07. Unable To Speak (1:11)
08. Getting The Bug Out (3:15)
09. Down The Rabbit Hole (3:34)
10. Rebirth (2:39)
11. Welcome (2:20)
12. The Nebuchadnezzar Crew (1:37)
13. The Real World (3:58)
14. The Search Is Over (1:29)
15. Training Begins (1:20)
16. Bow Whisk Orchestra (1:11)
17. Switch Or Break Show (1:02)
18. Free Your Mind (0:33)
19. First Jump (0:54)
20. Dinner (0:35)
21. The Gatekeepers (1:48)
22. Sentinels (2:03)
23. A Drink With Cypher (0:57)
24. Dealing For Bliss (0:38)
25. Off To See The Oracle (2:55)
26. There Is No Spoon (1:05)

CD2
01. Choices (1:25)
02. The Hotel Ambush (6:03)
03. Exit Mr. Hat (2:56)
04. Cypher's Burnout (4:44)
05. Perfect World (2:08)
06. Matters Of Belief (4:00)
07. A Virus (1:35)
08. The Key (1:55)
09. Lobby Shooting Spree (0:23)
10. Saving Morpheus (1:00)
11. Bullet-Time (1:06)12. B-2
12 Helicopter (0:42)
13. Ontological Shock (4:15)
14. The Subway Showdown (5:15)
15. The Sentinels Attack (4:03)
16. Anything Is Possible (6:46)
 
Exact Audio Copy V0.99 prebeta 5 from 4. May 2009

EAC extraction logfile from 25. March 2010, 15:42

Don Davis / The Matrix (CD1)

Used drive : _NEC DVD_RW ND-4571A Adapter: 1 ID: 0

Read mode : SecureUtilize accurate stream : YesDefeat audio cache : YesMake use of C2 pointers : No

Read offset correction : 48Overread into Lead-In and Lead-Out : NoFill up missing offset samples with silence : YesDelete leading and trailing silent blocks : NoNull samples used in CRC calculations : YesUsed interface : Installed external ASPI interfaceGap handling : Appended to previous track

Used output format : User Defined EncoderSelected bitrate : 1024 kBit/sQuality : HighAdd ID3 tag : NoCommand line compressor : C:\Program Files\Exact Audio Copy\Flac\flac.exeAdditional command line options : -8 -T "artist=%a" -T "title=%t" -T "album=%g" -T "date=%y" -T "tracknumber=%n" -T "genre=%m" %s

TOC of the extracted CD

Track | Start | Length | Start sector | End sector --------------------------------------------------------- 1 | 0:00.00 | 0:50.00 | 0 | 3749 2 | 0:50.00 | 5:58.00 | 3750 | 30599 3 | 6:48.00 | 0:31.12 | 30600 | 32936 4 | 7:19.12 | 0:14.63 | 32937 | 34049 5 | 7:34.00 | 3:21.56 | 34050 | 49180 6 | 10:55.56 | 0:47.37 | 49181 | 52742 7 | 11:43.18 | 1:11.63 | 52743 | 58130 8 | 12:55.06 | 3:14.70 | 58131 | 72750 9 | 16:10.01 | 3:33.50 | 72751 | 88775 10 | 19:43.51 | 2:39.08 | 88776 | 100708 11 | 22:22.59 | 2:20.27 | 100709 | 111235 12 | 24:43.11 | 1:37.00 | 111236 | 118510 13 | 26:20.11 | 3:58.24 | 118511 | 136384 14 | 30:18.35 | 1:29.38 | 136385 | 143097 15 | 31:47.73 | 1:19.63 | 143098 | 149085 16 | 33:07.61 | 1:11.27 | 149086 | 154437 17 | 34:19.13 | 1:02.38 | 154438 | 159125 18 | 35:21.51 | 0:33.12 | 159126 | 161612 19 | 35:54.63 | 0:54.00 | 161613 | 165662 20 | 36:48.63 | 0:35.50 | 165663 | 168337 21 | 37:24.38 | 1:47.63 | 168338 | 176425 22 | 39:12.26 | 2:03.00 | 176426 | 185650 23 | 41:15.26 | 0:57.00 | 185651 | 189925 24 | 42:12.26 | 0:37.24 | 189926 | 192724 25 | 42:49.50 | 2:55.39 | 192725 | 205888 26 | 45:45.14 | 1:05.15 | 205889 | 210778

Track 1

Filename D:\Temp\Don Davis\1999 - The Matrix Soundtrack (flac)\CD1\01. Opening Sequence.wav

Peak level 97.7 % Track quality 100.0 % Test CRC 6160236B Copy CRC 6160236B Track not present in AccurateRip database Copy OK

Track 2

Filename D:\Temp\Don Davis\1999 - The Matrix Soundtrack (flac)\CD1\02. Trinity In A Jam.wav

Peak level 97.8 % Track quality 100.0 % Test CRC 746EA174 Copy CRC 746EA174 Track not present in AccurateRip database Copy OK

Track 3

Filename D:\Temp\Don Davis\1999 - The Matrix Soundtrack (flac)\CD1\03. The Matrix Has You.wav

Peak level 53.7 % Track quality 100.0 % Test CRC 5B7FA869 Copy CRC 5B7FA869 Track not present in AccurateRip database Copy OK

Track 4

Filename D:\Temp\Don Davis\1999 - The Matrix Soundtrack (flac)\CD1\04. The White Rabbit.wav

Peak level 60.4 % Track quality 100.0 % Test CRC 54C4BBF7 Copy CRC 54C4BBF7 Track not present in AccurateRip database Copy OK

Track 5

Filename D:\Temp\Don Davis\1999 - The Matrix Soundtrack (flac)\CD1\05. They're Coming For You.wav

Peak level 96.3 % Track quality 100.0 % Test CRC F9669068 Copy CRC F9669068 Track not present in AccurateRip database Copy OK

Track 6

Filename D:\Temp\Don Davis\1999 - The Matrix Soundtrack (flac)\CD1\06. In Custody.wav

Peak level 22.3 % Track quality 99.7 % Test CRC 1680163D Copy CRC 1680163D Track not present in AccurateRip database Copy OK

Track 7

Filename D:\Temp\Don Davis\1999 - The Matrix Soundtrack (flac)\CD1\07. Unable To Speak.wav

Peak level 97.7 % Track quality 100.0 % Test CRC 7E95453D Copy CRC 7E95453D Track not present in AccurateRip database Copy OK

Track 8

Filename D:\Temp\Don Davis\1999 - The Matrix Soundtrack (flac)\CD1\08. Getting The Bug Out.wav

Peak level 97.7 % Track quality 99.9 % Test CRC F55EC5A1 Copy CRC F55EC5A1 Track not present in AccurateRip database Copy OK

Track 9

Filename D:\Temp\Don Davis\1999 - The Matrix Soundtrack (flac)\CD1\09. Down The Rabbit Hole.wav

Peak level 97.7 % Track quality 100.0 % Test CRC 15514EF5 Copy CRC 15514EF5 Track not present in AccurateRip database Copy OK

Track 10

Filename D:\Temp\Don Davis\1999 - The Matrix Soundtrack (flac)\CD1\10. Rebirth.wav

Peak level 97.8 % Track quality 100.0 % Test CRC AA52655C Copy CRC AA52655C Track not present in AccurateRip database Copy OK

Track 11

Filename D:\Temp\Don Davis\1999 - The Matrix Soundtrack (flac)\CD1\11. Welcome.wav

Peak level 47.0 % Track quality 100.0 % Test CRC ED99A1B0 Copy CRC ED99A1B0 Track not present in AccurateRip database Copy OK

Track 12

Filename D:\Temp\Don Davis\1999 - The Matrix Soundtrack (flac)\CD1\12. The Nebuchadnezzar Crew.wav

Peak level 97.4 % Track quality 100.0 % Test CRC 9AE03C83 Copy CRC 9AE03C83 Track not present in AccurateRip database Copy OK

Track 13

Filename D:\Temp\Don Davis\1999 - The Matrix Soundtrack (flac)\CD1\13. The Real World.wav

Peak level 97.7 % Track quality 100.0 % Test CRC EC59513C Copy CRC EC59513C Track not present in AccurateRip database Copy OK

Track 14

Filename D:\Temp\Don Davis\1999 - The Matrix Soundtrack (flac)\CD1\14. The Search Is Over.wav

Peak level 20.7 % Track quality 100.0 % Test CRC E5E60B27 Copy CRC E5E60B27 Track not present in AccurateRip database Copy OK

Track 15

Filename D:\Temp\Don Davis\1999 - The Matrix Soundtrack (flac)\CD1\15. Training Begins.wav

Peak level 96.2 % Track quality 100.0 % Test CRC DA9F0C95 Copy CRC DA9F0C95 Track not present in AccurateRip database Copy OK

Track 16

Filename D:\Temp\Don Davis\1999 - The Matrix Soundtrack (flac)\CD1\16. Bow Whisk Orchestra.wav

Peak level 96.9 % Track quality 99.8 % Test CRC 3312D29A Copy CRC 3312D29A Track not present in AccurateRip database Copy OK

Track 17

Filename D:\Temp\Don Davis\1999 - The Matrix Soundtrack (flac)\CD1\17. Switch Or Break Show.wav

Peak level 97.7 % Track quality 100.0 % Test CRC 80025DB8 Copy CRC 80025DB8 Track not present in AccurateRip database Copy OK

Track 18

Filename D:\Temp\Don Davis\1999 - The Matrix Soundtrack (flac)\CD1\18. Free Your Mind.wav

Peak level 96.4 % Track quality 100.0 % Test CRC 163151C9 Copy CRC 163151C9 Track not present in AccurateRip database Copy OK

Track 19

Filename D:\Temp\Don Davis\1999 - The Matrix Soundtrack (flac)\CD1\19. First Jump.wav

Peak level 84.1 % Track quality 100.0 % Test CRC F5BE351D Copy CRC F5BE351D Track not present in AccurateRip database Copy OK

Track 20

Filename D:\Temp\Don Davis\1999 - The Matrix Soundtrack (flac)\CD1\20. Dinner.wav

Peak level 4.7 % Track quality 100.0 % Test CRC 2AEC8186 Copy CRC 2AEC8186 Track not present in AccurateRip database Copy OK

Track 21

Filename D:\Temp\Don Davis\1999 - The Matrix Soundtrack (flac)\CD1\21. The Gatekeepers.wav

Peak level 97.7 % Track quality 100.0 % Test CRC E5C3CD0C Copy CRC E5C3CD0C Track not present in AccurateRip database Copy OK

Track 22

Filename D:\Temp\Don Davis\1999 - The Matrix Soundtrack (flac)\CD1\22. Sentinels.wav

Peak level 97.7 % Track quality 100.0 % Test CRC 41D71DAE Copy CRC 41D71DAE Track not present in AccurateRip database Copy OK

Track 23

Filename D:\Temp\Don Davis\1999 - The Matrix Soundtrack (flac)\CD1\23. A Drink With Cypher.wav

Peak level 15.8 % Track quality 100.0 % Test CRC ECCD239E Copy CRC ECCD239E Track not present in AccurateRip database Copy OK

Track 24

Filename D:\Temp\Don Davis\1999 - The Matrix Soundtrack (flac)\CD1\24. Dealing For Bliss.wav

Peak level 13.4 % Track quality 100.0 % Test CRC 0AF83979 Copy CRC 0AF83979 Track not present in AccurateRip database Copy OK

Track 25

Filename D:\Temp\Don Davis\1999 - The Matrix Soundtrack (flac)\CD1\25. Off To See The Oracle.wav

Peak level 97.7 % Track quality 100.0 % Test CRC 8041FBF8 Copy CRC 8041FBF8 Track not present in AccurateRip database Copy OK

Track 26

Filename D:\Temp\Don Davis\1999 - The Matrix Soundtrack (flac)\CD1\26. There Is No Spoon.wav

Peak level 19.5 % Track quality 100.0 % Test CRC D6028F2E Copy CRC D6028F2E Track not present in AccurateRip database Copy OK

None of the tracks are present in the AccurateRip database

No errors occurred

End of status report
 
REM GENRE SoundtrackREM DATE 1999REM DISCID 670AFA1APERFORMER "Don Davis"TITLE "The Matrix (CD1)"FILE "01. Opening Sequence.wav" WAVE TRACK 01 AUDIO TITLE "Opening Sequence" PERFORMER "Don Davis" INDEX 01 00:00:00FILE "02. Trinity In A Jam.wav" WAVE TRACK 02 AUDIO TITLE "Trinity In A Jam" PERFORMER "Don Davis" INDEX 01 00:00:00FILE "03. The Matrix Has You.wav" WAVE TRACK 03 AUDIO TITLE "The Matrix Has You" PERFORMER "Don Davis" INDEX 01 00:00:00FILE "04. The White Rabbit.wav" WAVE TRACK 04 AUDIO TITLE "The White Rabbit" PERFORMER "Don Davis" INDEX 01 00:00:00FILE "05. They're Coming For You.wav" WAVE TRACK 05 AUDIO TITLE "They're Coming For You" PERFORMER "Don Davis" INDEX 01 00:00:00FILE "06. In Custody.wav" WAVE TRACK 06 AUDIO TITLE "In Custody" PERFORMER "Don Davis" INDEX 01 00:00:00FILE "07. Unable To Speak.wav" WAVE TRACK 07 AUDIO TITLE "Unable To Speak" PERFORMER "Don Davis" INDEX 01 00:00:00FILE "08. Getting The Bug Out.wav" WAVE TRACK 08 AUDIO TITLE "Getting The Bug Out" PERFORMER "Don Davis" INDEX 01 00:00:00FILE "09. Down The Rabbit Hole.wav" WAVE TRACK 09 AUDIO TITLE "Down The Rabbit Hole" PERFORMER "Don Davis" INDEX 01 00:00:00FILE "10. Rebirth.wav" WAVE TRACK 10 AUDIO TITLE "Rebirth" PERFORMER "Don Davis" INDEX 01 00:00:00FILE "11. Welcome.wav" WAVE TRACK 11 AUDIO TITLE "Welcome" PERFORMER "Don Davis" INDEX 01 00:00:00FILE "12. The Nebuchadnezzar Crew.wav" WAVE TRACK 12 AUDIO TITLE "The Nebuchadnezzar Crew" PERFORMER "Don Davis" INDEX 01 00:00:00FILE "13. The Real World.wav" WAVE TRACK 13 AUDIO TITLE "The Real World" PERFORMER "Don Davis" INDEX 01 00:00:00FILE "14. The Search Is Over.wav" WAVE TRACK 14 AUDIO TITLE "The Search Is Over" PERFORMER "Don Davis" INDEX 01 00:00:00FILE "15. Training Begins.wav" WAVE TRACK 15 AUDIO TITLE "Training Begins" PERFORMER "Don Davis" INDEX 01 00:00:00FILE "16. Bow Whisk Orchestra.wav" WAVE TRACK 16 AUDIO TITLE "Bow Whisk Orchestra" PERFORMER "Don Davis" INDEX 01 00:00:00FILE "17. Switch Or Break Show.wav" WAVE TRACK 17 AUDIO TITLE "Switch Or Break Show" PERFORMER "Don Davis" INDEX 01 00:00:00FILE "18. Free Your Mind.wav" WAVE TRACK 18 AUDIO TITLE "Free Your Mind" PERFORMER "Don Davis" INDEX 01 00:00:00FILE "19. First Jump.wav" WAVE TRACK 19 AUDIO TITLE "First Jump" PERFORMER "Don Davis" INDEX 01 00:00:00FILE "20. Dinner.wav" WAVE TRACK 20 AUDIO TITLE "Dinner" PERFORMER "Don Davis" INDEX 01 00:00:00FILE "21. The Gatekeepers.wav" WAVE TRACK 21 AUDIO TITLE "The Gatekeepers" PERFORMER "Don Davis" INDEX 01 00:00:00FILE "22. Sentinels.wav" WAVE TRACK 22 AUDIO TITLE "Sentinels" PERFORMER "Don Davis" INDEX 01 00:00:00FILE "23. A Drink With Cypher.wav" WAVE TRACK 23 AUDIO TITLE "A Drink With Cypher" PERFORMER "Don Davis" INDEX 01 00:00:00FILE "24. Dealing For Bliss.wav" WAVE TRACK 24 AUDIO TITLE "Dealing For Bliss" PERFORMER "Don Davis" INDEX 01 00:00:00FILE "25. Off To See The Oracle.wav" WAVE TRACK 25 AUDIO TITLE "Off To See The Oracle" PERFORMER "Don Davis" INDEX 01 00:00:00FILE "26. There Is No Spoon.wav" WAVE TRACK 26 AUDIO TITLE "There Is No Spoon" PERFORMER "Don Davis" INDEX 01 00:00:00
 
Exact Audio Copy V0.99 prebeta 5 from 4. May 2009

EAC extraction logfile from 25. March 2010, 16:07

Don Davis / The Matrix (CD2)

Used drive : _NEC DVD_RW ND-4571A Adapter: 1 ID: 0

Read mode : SecureUtilize accurate stream : YesDefeat audio cache : YesMake use of C2 pointers : No

Read offset correction : 48Overread into Lead-In and Lead-Out : NoFill up missing offset samples with silence : YesDelete leading and trailing silent blocks : NoNull samples used in CRC calculations : YesUsed interface : Installed external ASPI interfaceGap handling : Appended to previous track

Used output format : User Defined EncoderSelected bitrate : 1024 kBit/sQuality : HighAdd ID3 tag : NoCommand line compressor : C:\Program Files\Exact Audio Copy\Flac\flac.exeAdditional command line options : -8 -T "artist=%a" -T "title=%t" -T "album=%g" -T "date=%y" -T "tracknumber=%n" -T "genre=%m" %s

TOC of the extracted CD

Track | Start | Length | Start sector | End sector --------------------------------------------------------- 1 | 0:00.00 | 1:25.50 | 0 | 6424 2 | 1:25.50 | 6:03.24 | 6425 | 33673 3 | 7:28.74 | 2:55.00 | 33674 | 46798 4 | 10:23.74 | 4:44.00 | 46799 | 68098 5 | 15:07.74 | 2:08.00 | 68099 | 77698 6 | 17:15.74 | 4:00.08 | 77699 | 95706 7 | 21:16.07 | 1:35.70 | 95707 | 102901 8 | 22:52.02 | 1:54.50 | 102902 | 111501 9 | 24:46.52 | 0:23.31 | 111502 | 113257 10 | 25:10.08 | 1:00.08 | 113258 | 117765 11 | 26:10.16 | 1:05.50 | 117766 | 122690 12 | 27:15.66 | 0:42.25 | 122691 | 125865 13 | 27:58.16 | 4:15.33 | 125866 | 145023 14 | 32:13.49 | 5:15.00 | 145024 | 168648 15 | 37:28.49 | 4:03.35 | 168649 | 186908 16 | 41:32.09 | 6:46.21 | 186909 | 217379

Track 1

Filename D:\Temp\Don Davis\1999 - The Matrix Soundtrack (flac)\CD2\01. Choices.wav

Peak level 15.0 % Track quality 99.8 % Test CRC 59CE92E5 Copy CRC 59CE92E5 Track not present in AccurateRip database Copy OK

Track 2

Filename D:\Temp\Don Davis\1999 - The Matrix Soundtrack (flac)\CD2\02. The Hotel Ambush.wav

Peak level 97.8 % Track quality 100.0 % Test CRC 46643636 Copy CRC 46643636 Track not present in AccurateRip database Copy OK

Track 3

Filename D:\Temp\Don Davis\1999 - The Matrix Soundtrack (flac)\CD2\03. Exit Mr. Hat.wav

Peak level 97.7 % Track quality 99.9 % Test CRC C3FFFDF1 Copy CRC C3FFFDF1 Track not present in AccurateRip database Copy OK

Track 4

Filename D:\Temp\Don Davis\1999 - The Matrix Soundtrack (flac)\CD2\04. Cypher's Burnout.wav

Peak level 97.7 % Track quality 100.0 % Test CRC DFA72F97 Copy CRC DFA72F97 Track not present in AccurateRip database Copy OK

Track 5

Filename D:\Temp\Don Davis\1999 - The Matrix Soundtrack (flac)\CD2\05. Perfect World.wav

Peak level 97.7 % Track quality 100.0 % Test CRC 50B1BD09 Copy CRC 50B1BD09 Track not present in AccurateRip database Copy OK

Track 6

Filename D:\Temp\Don Davis\1999 - The Matrix Soundtrack (flac)\CD2\06. Matters Of Belief.wav

Peak level 97.7 % Track quality 100.0 % Test CRC 5E01C491 Copy CRC 5E01C491 Track not present in AccurateRip database Copy OK

Track 7

Filename D:\Temp\Don Davis\1999 - The Matrix Soundtrack (flac)\CD2\07. A Virus.wav

Peak level 97.7 % Track quality 100.0 % Test CRC FD541790 Copy CRC FD541790 Track not present in AccurateRip database Copy OK

Track 8

Filename D:\Temp\Don Davis\1999 - The Matrix Soundtrack (flac)\CD2\08. The Key.wav

Peak level 90.1 % Track quality 100.0 % Test CRC 797EAB8F Copy CRC 797EAB8F Track not present in AccurateRip database Copy OK

Track 9

Filename D:\Temp\Don Davis\1999 - The Matrix Soundtrack (flac)\CD2\09. Lobby Shooting Spree.wav

Peak level 97.7 % Track quality 100.0 % Test CRC 79BD55AD Copy CRC 79BD55AD Track not present in AccurateRip database Copy OK

Track 10

Filename D:\Temp\Don Davis\1999 - The Matrix Soundtrack (flac)\CD2\10. Saving Morpheus.wav

Peak level 97.7 % Track quality 99.8 % Test CRC F7535CF9 Copy CRC F7535CF9 Track not present in AccurateRip database Copy OK

Track 11

Filename D:\Temp\Don Davis\1999 - The Matrix Soundtrack (flac)\CD2\11. Bullet-Time.wav

Peak level 97.7 % Track quality 100.0 % Test CRC F01A2D82 Copy CRC F01A2D82 Track not present in AccurateRip database Copy OK

Track 12

Filename D:\Temp\Don Davis\1999 - The Matrix Soundtrack (flac)\CD2\12. B-212 Helicopter.wav

Peak level 97.7 % Track quality 100.0 % Test CRC 438E4DA0 Copy CRC 438E4DA0 Track not present in AccurateRip database Copy OK

Track 13

Filename D:\Temp\Don Davis\1999 - The Matrix Soundtrack (flac)\CD2\13. Ontological Shock.wav

Peak level 97.7 % Track quality 100.0 % Test CRC F3365BC3 Copy CRC F3365BC3 Track not present in AccurateRip database Copy OK

Track 14

Filename D:\Temp\Don Davis\1999 - The Matrix Soundtrack (flac)\CD2\14. The Subway Showdown.wav

Peak level 97.7 % Track quality 100.0 % Test CRC B025EF3D Copy CRC B025EF3D Track not present in AccurateRip database Copy OK

Track 15

Filename D:\Temp\Don Davis\1999 - The Matrix Soundtrack (flac)\CD2\15. The Sentinels Attack.wav

Peak level 97.7 % Track quality 100.0 % Test CRC 0FC86219 Copy CRC 0FC86219 Track not present in AccurateRip database Copy OK

Track 16

Filename D:\Temp\Don Davis\1999 - The Matrix Soundtrack (flac)\CD2\16. Anything Is Possible.wav

Peak level 97.8 % Track quality 100.0 % Test CRC 7709C63B Copy CRC 7709C63B Track not present in AccurateRip database Copy OK

None of the tracks are present in the AccurateRip database

No errors occurred

End of status report
 
REM GENRE SoundtrackREM DATE 1999REM DISCID E00B5210PERFORMER "Don Davis"TITLE "The Matrix (CD2)"FILE "01. Choices.wav" WAVE TRACK 01 AUDIO TITLE "Choices" PERFORMER "Don Davis" INDEX 01 00:00:00FILE "02. The Hotel Ambush.wav" WAVE TRACK 02 AUDIO TITLE "The Hotel Ambush" PERFORMER "Don Davis" INDEX 01 00:00:00FILE "03. Exit Mr. Hat.wav" WAVE TRACK 03 AUDIO TITLE "Exit Mr. Hat" PERFORMER "Don Davis" INDEX 01 00:00:00FILE "04. Cypher's Burnout.wav" WAVE TRACK 04 AUDIO TITLE "Cypher's Burnout" PERFORMER "Don Davis" INDEX 01 00:00:00FILE "05. Perfect World.wav" WAVE TRACK 05 AUDIO TITLE "Perfect World" PERFORMER "Don Davis" INDEX 01 00:00:00FILE "06. Matters Of Belief.wav" WAVE TRACK 06 AUDIO TITLE "Matters Of Belief" PERFORMER "Don Davis" INDEX 01 00:00:00FILE "07. A Virus.wav" WAVE TRACK 07 AUDIO TITLE "A Virus" PERFORMER "Don Davis" INDEX 01 00:00:00FILE "08. The Key.wav" WAVE TRACK 08 AUDIO TITLE "The Key" PERFORMER "Don Davis" INDEX 01 00:00:00FILE "09. Lobby Shooting Spree.wav" WAVE TRACK 09 AUDIO TITLE "Lobby Shooting Spree" PERFORMER "Don Davis" INDEX 01 00:00:00FILE "10. Saving Morpheus.wav" WAVE TRACK 10 AUDIO TITLE "Saving Morpheus" PERFORMER "Don Davis" INDEX 01 00:00:00FILE "11. Bullet-Time.wav" WAVE TRACK 11 AUDIO TITLE "Bullet-Time" PERFORMER "Don Davis" INDEX 01 00:00:00FILE "12. B-212 Helicopter.wav" WAVE TRACK 12 AUDIO TITLE "B-212 Helicopter" PERFORMER "Don Davis" INDEX 01 00:00:00FILE "13. Ontological Shock.wav" WAVE TRACK 13 AUDIO TITLE "Ontological Shock" PERFORMER "Don Davis" INDEX 01 00:00:00FILE "14. The Subway Showdown.wav" WAVE TRACK 14 AUDIO TITLE "The Subway Showdown" PERFORMER "Don Davis" INDEX 01 00:00:00FILE "15. The Sentinels Attack.wav" WAVE TRACK 15 AUDIO TITLE "The Sentinels Attack" PERFORMER "Don Davis" INDEX 01 00:00:00FILE "16. Anything Is Possible.wav" WAVE TRACK 16 AUDIO TITLE "Anything Is Possible" PERFORMER "Don Davis" INDEX 01 00:00:00
 
 
 
 
 
 
CD1
01. Main Titles (1:29)
02. Trinity Vs. Car (1:55)
03. Enter The Nebuchadnezzar (1:05)
04. Smith At The Door (4:12)
05. Furious Angels (performed by Rob Dougan) (5:28)
06. Smith Vs. Smith (0:33)
07. Free Flight (3:07)
08. Wonder Of Zion (1:18)
09. The Lascivious Lift (1:09)
10. Link And Zee (2:11)
11. Morpheus On The Mount (0:51)
12. Goodbye Zion (1:04)
13. The Bane Transformation (1:44)
14. The Bane Voyage (2:52)
15. First, I Must Apologize (1:05)
16. Teahouse (performed by Juno Reactor & Gocoo) (1:03)
17. The Industrial Highway (1:11)
18. Oracle Oratory (2:02)
19. Purpose That Created Us (3:02)
20. The Burly Brawl (performed by Don Davis & Juno Reactor) (5:50)
21. The Burly Brawl (alternate) (1:28)
22. Multiple Replication (4:23)
23. The Council Of Cool (2:04)
24. Meeting Merovingian (1:43)
25. Niaiserie (5:55)
26. Choice Is An Illusion (2:34)
27. Sample This (3:48)
28. Meet The Keymaker (0:49)
29. Some Skill (0:40)
30. Chateau (performed by Rob Dougan) (3:22)
31. Chateau Swashbuckling (3:45)

CD2
01. Double Trouble (2:18)
02. Dante / Mona Lisa Overdrive (performed by Don Davis & Juno Reactor) (10:10)
03. Truck Vs. Truck (4:24)
04. The Plan (4:13)
05. Final Flight Of The Vigilant (3:01)
06. Kill The Keymaker (2:57)
07. Doddering Old Fool (3:10)
08. The Problem Is Choice (0:45)
09. Window Switch (4:06)
10. Neo Miraculous (3:35)
11. No More Nebuchadnezzar (4:00)
12. Contusion Conclusion (1:15)
 
Exact Audio Copy V0.99 prebeta 5 from 4. May 2009

EAC extraction logfile from 25. March 2010, 16:45

Don Davis / The Matrix Reloaded (CD1)

Used drive : _NEC DVD_RW ND-4571A Adapter: 1 ID: 0

Read mode : SecureUtilize accurate stream : YesDefeat audio cache : YesMake use of C2 pointers : No

Read offset correction : 48Overread into Lead-In and Lead-Out : NoFill up missing offset samples with silence : YesDelete leading and trailing silent blocks : NoNull samples used in CRC calculations : YesUsed interface : Installed external ASPI interfaceGap handling : Appended to previous track

Used output format : User Defined EncoderSelected bitrate : 1024 kBit/sQuality : HighAdd ID3 tag : NoCommand line compressor : C:\Program Files\Exact Audio Copy\Flac\flac.exeAdditional command line options : -8 -T "artist=%a" -T "title=%t" -T "album=%g" -T "date=%y" -T "tracknumber=%n" -T "genre=%m" %s

TOC of the extracted CD

Track | Start | Length | Start sector | End sector --------------------------------------------------------- 1 | 0:00.00 | 1:29.28 | 0 | 6702 2 | 1:29.28 | 1:55.13 | 6703 | 15340 3 | 3:24.41 | 1:05.55 | 15341 | 20270 4 | 4:30.21 | 4:12.03 | 20271 | 39173 5 | 8:42.24 | 5:28.63 | 39174 | 63836 6 | 14:11.12 | 0:34.00 | 63837 | 66386 7 | 14:45.12 | 3:07.59 | 66387 | 80470 8 | 17:52.71 | 1:17.72 | 80471 | 86317 9 | 19:10.68 | 1:09.50 | 86318 | 91542 10 | 20:20.43 | 2:11.40 | 91543 | 101407 11 | 22:32.08 | 0:51.46 | 101408 | 105278 12 | 23:23.54 | 1:04.00 | 105279 | 110078 13 | 24:27.54 | 1:44.16 | 110079 | 117894 14 | 26:11.70 | 2:52.59 | 117895 | 130853 15 | 29:04.54 | 1:06.12 | 130854 | 135815 16 | 30:10.66 | 1:03.12 | 135816 | 140552 17 | 31:14.03 | 1:11.24 | 140553 | 145901 18 | 32:25.27 | 2:02.00 | 145902 | 155051 19 | 34:27.27 | 3:02.00 | 155052 | 168701 20 | 37:29.27 | 5:50.07 | 168702 | 194958 21 | 43:19.34 | 1:28.16 | 194959 | 201574 22 | 44:47.50 | 4:23.63 | 201575 | 221362 23 | 49:11.38 | 2:04.00 | 221363 | 230662 24 | 51:15.38 | 1:43.50 | 230663 | 238437 25 | 52:59.13 | 5:55.22 | 238438 | 265084 26 | 58:54.35 | 2:34.34 | 265085 | 276668 27 | 61:28.69 | 3:48.18 | 276669 | 293786 28 | 65:17.12 | 0:49.38 | 293787 | 297499 29 | 66:06.50 | 0:40.50 | 297500 | 300549 30 | 66:47.25 | 3:22.00 | 300550 | 315699 31 | 70:09.25 | 3:45.37 | 315700 | 332611

Track 1

Filename D:\Temp\Don Davis\2003 - The Matrix Reloaded Soundtrack (flac)\CD1\01. Main Title.wav

Peak level 98.8 % Track quality 100.0 % Test CRC DF144AB3 Copy CRC DF144AB3 Track not present in AccurateRip database Copy OK

Track 2

Filename D:\Temp\Don Davis\2003 - The Matrix Reloaded Soundtrack (flac)\CD1\02. Trinity Vs. Car.wav

Peak level 98.8 % Track quality 100.0 % Test CRC BD1AA490 Copy CRC BD1AA490 Track not present in AccurateRip database Copy OK

Track 3

Filename D:\Temp\Don Davis\2003 - The Matrix Reloaded Soundtrack (flac)\CD1\03. Enter The Nebuchadnezzar.wav

Peak level 87.0 % Track quality 99.8 % Test CRC C32C6F82 Copy CRC C32C6F82 Track not present in AccurateRip database Copy OK

Track 4

Filename D:\Temp\Don Davis\2003 - The Matrix Reloaded Soundtrack (flac)\CD1\04. Smith At The Door.wav

Peak level 97.8 % Track quality 99.9 % Test CRC 3B88166A Copy CRC 3B88166A Track not present in AccurateRip database Copy OK

Track 5

Filename D:\Temp\Don Davis\2003 - The Matrix Reloaded Soundtrack (flac)\CD1\05. Furious Angels (performed by Rob Dougan).wav

Peak level 87.5 % Track quality 100.0 % Test CRC C3B6C47D Copy CRC C3B6C47D Track not present in AccurateRip database Copy OK

Track 6

Filename D:\Temp\Don Davis\2003 - The Matrix Reloaded Soundtrack (flac)\CD1\06. Smith Vs. Smith.wav

Peak level 98.6 % Track quality 100.0 % Test CRC 26E70369 Copy CRC 26E70369 Track not present in AccurateRip database Copy OK

Track 7

Filename D:\Temp\Don Davis\2003 - The Matrix Reloaded Soundtrack (flac)\CD1\07. Free Flight.wav

Peak level 98.5 % Track quality 100.0 % Test CRC 6D391430 Copy CRC 6D391430 Track not present in AccurateRip database Copy OK

Track 8

Filename D:\Temp\Don Davis\2003 - The Matrix Reloaded Soundtrack (flac)\CD1\08. Wonder Of Zion.wav

Peak level 81.9 % Track quality 100.0 % Test CRC 1FFE0F3A Copy CRC 1FFE0F3A Track not present in AccurateRip database Copy OK

Track 9

Filename D:\Temp\Don Davis\2003 - The Matrix Reloaded Soundtrack (flac)\CD1\09. The Lascivious Lift.wav

Peak level 38.8 % Track quality 100.0 % Test CRC 21F0A984 Copy CRC 21F0A984 Track not present in AccurateRip database Copy OK

Track 10

Filename D:\Temp\Don Davis\2003 - The Matrix Reloaded Soundtrack (flac)\CD1\10. Link And Zee.wav

Peak level 36.0 % Track quality 100.0 % Test CRC 282EC4EE Copy CRC 282EC4EE Track not present in AccurateRip database Copy OK

Track 11

Filename D:\Temp\Don Davis\2003 - The Matrix Reloaded Soundtrack (flac)\CD1\11. Morpheus On The Mount.wav

Peak level 99.2 % Track quality 100.0 % Test CRC 71C79DBC Copy CRC 71C79DBC Track not present in AccurateRip database Copy OK

Track 12

Filename D:\Temp\Don Davis\2003 - The Matrix Reloaded Soundtrack (flac)\CD1\12. Goodnight Zion.wav

Peak level 31.7 % Track quality 100.0 % Test CRC 8FF01B3C Copy CRC 8FF01B3C Track not present in AccurateRip database Copy OK

Track 13

Filename D:\Temp\Don Davis\2003 - The Matrix Reloaded Soundtrack (flac)\CD1\13. The Bane Transformation.wav

Peak level 100.0 % Track quality 100.0 % Test CRC 42D8CB34 Copy CRC 42D8CB34 Track not present in AccurateRip database Copy OK

Track 14

Filename D:\Temp\Don Davis\2003 - The Matrix Reloaded Soundtrack (flac)\CD1\14. The Bane Voyage.wav

Peak level 97.8 % Track quality 100.0 % Test CRC 26DD5766 Copy CRC 26DD5766 Track not present in AccurateRip database Copy OK

Track 15

Filename D:\Temp\Don Davis\2003 - The Matrix Reloaded Soundtrack (flac)\CD1\15. First, I Must Apologize.wav

Peak level 65.8 % Track quality 100.0 % Test CRC CE579AEE Copy CRC CE579AEE Track not present in AccurateRip database Copy OK

Track 16

Filename D:\Temp\Don Davis\2003 - The Matrix Reloaded Soundtrack (flac)\CD1\16. Teahouse (performed by Juno Reactor & Gocoo).wav

Peak level 98.8 % Track quality 100.0 % Test CRC 2546863E Copy CRC 2546863E Track not present in AccurateRip database Copy OK

Track 17

Filename D:\Temp\Don Davis\2003 - The Matrix Reloaded Soundtrack (flac)\CD1\17. The Industrial Highway.wav

Peak level 41.0 % Track quality 100.0 % Test CRC 21C1ADAE Copy CRC 21C1ADAE Track not present in AccurateRip database Copy OK

Track 18

Filename D:\Temp\Don Davis\2003 - The Matrix Reloaded Soundtrack (flac)\CD1\18. Oracle Oratory.wav

Peak level 30.2 % Track quality 100.0 % Test CRC 62E60C22 Copy CRC 62E60C22 Track not present in AccurateRip database Copy OK

Track 19

Filename D:\Temp\Don Davis\2003 - The Matrix Reloaded Soundtrack (flac)\CD1\19. Purpose That Created Us.wav

Peak level 98.7 % Track quality 100.0 % Test CRC BF004E95 Copy CRC BF004E95 Track not present in AccurateRip database Copy OK

Track 20

Filename D:\Temp\Don Davis\2003 - The Matrix Reloaded Soundtrack (flac)\CD1\20. The Burly Brawl (performed by Don Davis & Juno Reactor).wav

Peak level 98.8 % Track quality 100.0 % Test CRC 32D9F849 Copy CRC 32D9F849 Track not present in AccurateRip database Copy OK

Track 21

Filename D:\Temp\Don Davis\2003 - The Matrix Reloaded Soundtrack (flac)\CD1\21. The Burly Brawl (alternate).wav

Peak level 100.0 % Track quality 100.0 % Test CRC 017C0F37 Copy CRC 017C0F37 Track not present in AccurateRip database Copy OK

Track 22

Filename D:\Temp\Don Davis\2003 - The Matrix Reloaded Soundtrack (flac)\CD1\22. Multiple Replication.wav

Peak level 99.7 % Track quality 100.0 % Test CRC 6ABDCD31 Copy CRC 6ABDCD31 Track not present in AccurateRip database Copy OK

Track 23

Filename D:\Temp\Don Davis\2003 - The Matrix Reloaded Soundtrack (flac)\CD1\23. The Council Of Cool.wav

Peak level 45.8 % Track quality 100.0 % Test CRC 07A612FD Copy CRC 07A612FD Track not present in AccurateRip database Copy OK

Track 24

Filename D:\Temp\Don Davis\2003 - The Matrix Reloaded Soundtrack (flac)\CD1\24. Meeting The Merovingian.wav

Peak level 83.7 % Track quality 100.0 % Test CRC C9BD9505 Copy CRC C9BD9505 Track not present in AccurateRip database Copy OK

Track 25

Filename D:\Temp\Don Davis\2003 - The Matrix Reloaded Soundtrack (flac)\CD1\25. Niaiserie.wav

Peak level 98.4 % Track quality 99.9 % Test CRC 3647283B Copy CRC 3647283B Track not present in AccurateRip database Copy OK

Track 26

Filename D:\Temp\Don Davis\2003 - The Matrix Reloaded Soundtrack (flac)\CD1\26. Choice Is An Illusion.wav

Peak level 70.8 % Track quality 100.0 % Test CRC 56E24C23 Copy CRC 56E24C23 Track not present in AccurateRip database Copy OK

Track 27

Filename D:\Temp\Don Davis\2003 - The Matrix Reloaded Soundtrack (flac)\CD1\27. Sample This.wav

Peak level 98.6 % Track quality 100.0 % Test CRC 3BAB52A7 Copy CRC 3BAB52A7 Track not present in AccurateRip database Copy OK

Track 28

Filename D:\Temp\Don Davis\2003 - The Matrix Reloaded Soundtrack (flac)\CD1\28. Meet The Keymaker.wav

Peak level 98.3 % Track quality 100.0 % Test CRC 8FDF5C25 Copy CRC 8FDF5C25 Track not present in AccurateRip database Copy OK

Track 29

Filename D:\Temp\Don Davis\2003 - The Matrix Reloaded Soundtrack (flac)\CD1\29. Some Skill.wav

Peak level 98.1 % Track quality 100.0 % Test CRC DB771FFF Copy CRC DB771FFF Track not present in AccurateRip database Copy OK

Track 30

Filename D:\Temp\Don Davis\2003 - The Matrix Reloaded Soundtrack (flac)\CD1\30. Chateau (performed by Rob Dougan).wav

Peak level 97.2 % Track quality 100.0 % Test CRC 9D834B7B Copy CRC 9D834B7B Track not present in AccurateRip database Copy OK

Track 31

Filename D:\Temp\Don Davis\2003 - The Matrix Reloaded Soundtrack (flac)\CD1\31. Chateau Swashbuckling.wav

Peak level 99.8 % Track quality 99.9 % Test CRC DF8045B6 Copy CRC DF8045B6 Track not present in AccurateRip database Copy OK

None of the tracks are present in the AccurateRip database

No errors occurred

End of status report
 
REM GENRE SoundtrackREM DATE 2003REM DISCID C811521FPERFORMER "Don Davis"TITLE "The Matrix Reloaded (CD1)"FILE "01. Main Title.wav" WAVE TRACK 01 AUDIO TITLE "Main Title" PERFORMER "Don Davis" INDEX 01 00:00:00FILE "02. Trinity Vs. Car.wav" WAVE TRACK 02 AUDIO TITLE "Trinity Vs. Car" PERFORMER "Don Davis" INDEX 01 00:00:00FILE "03. Enter The Nebuchadnezzar.wav" WAVE TRACK 03 AUDIO TITLE "Enter The Nebuchadnezzar" PERFORMER "Don Davis" INDEX 01 00:00:00FILE "04. Smith At The Door.wav" WAVE TRACK 04 AUDIO TITLE "Smith At The Door" PERFORMER "Don Davis" INDEX 01 00:00:00FILE "05. Furious Angels.wav" WAVE TRACK 05 AUDIO TITLE "Furious Angels (performed by Rob Dougan)" PERFORMER "Rob Dougan" INDEX 01 00:00:00FILE "06. Smith Vs. Smith.wav" WAVE TRACK 06 AUDIO TITLE "Smith Vs. Smith" PERFORMER "Don Davis" INDEX 01 00:00:00FILE "07. Free Flight.wav" WAVE TRACK 07 AUDIO TITLE "Free Flight" PERFORMER "Don Davis" INDEX 01 00:00:00FILE "08. Wonder Of Zion.wav" WAVE TRACK 08 AUDIO TITLE "Wonder Of Zion" PERFORMER "Don Davis" INDEX 01 00:00:00FILE "09. The Lascivious Lift.wav" WAVE TRACK 09 AUDIO TITLE "The Lascivious Lift" PERFORMER "Don Davis" INDEX 01 00:00:00FILE "10. Link And Zee.wav" WAVE TRACK 10 AUDIO TITLE "Link And Zee" PERFORMER "Don Davis" INDEX 01 00:00:00FILE "11. Morpheus On The Mount.wav" WAVE TRACK 11 AUDIO TITLE "Morpheus On The Mount" PERFORMER "Don Davis" INDEX 01 00:00:00FILE "12. Goodnight Zion.wav" WAVE TRACK 12 AUDIO TITLE "Goodnight Zion" PERFORMER "Don Davis" INDEX 01 00:00:00FILE "13. The Bane Transformation.wav" WAVE TRACK 13 AUDIO TITLE "The Bane Transformation" PERFORMER "Don Davis" INDEX 01 00:00:00FILE "14. The Bane Voyage.wav" WAVE TRACK 14 AUDIO TITLE "The Bane Voyage" PERFORMER "Don Davis" INDEX 01 00:00:00FILE "15. First, I Must Apologize.wav" WAVE TRACK 15 AUDIO TITLE "First, I Must Apologize" PERFORMER "Don Davis" INDEX 01 00:00:00FILE "16. Teahouse.wav" WAVE TRACK 16 AUDIO TITLE "Teahouse (performed by Juno Reactor & Gocoo)" PERFORMER "Ben Watkins & Gocoo" INDEX 01 00:00:00FILE "17. The Industrial Highway.wav" WAVE TRACK 17 AUDIO TITLE "The Industrial Highway" PERFORMER "Don Davis" INDEX 01 00:00:00FILE "18. Oracle Oratory.wav" WAVE TRACK 18 AUDIO TITLE "Oracle Oratory" PERFORMER "Don Davis" INDEX 01 00:00:00FILE "19. Purpose That Created Us.wav" WAVE TRACK 19 AUDIO TITLE "Purpose That Created Us" PERFORMER "Don Davis" INDEX 01 00:00:00FILE "20. The Burly Brawl.wav" WAVE TRACK 20 AUDIO TITLE "The Burly Brawl (performed by Don Davis & Juno Reactor)" PERFORMER "Don Davis & Ben Watkins" INDEX 01 00:00:00FILE "21. The Burly Brawl (alternate).wav" WAVE TRACK 21 AUDIO TITLE "The Burly Brawl (alternate)" PERFORMER "Don Davis" INDEX 01 00:00:00FILE "22. Multiple Replication.wav" WAVE TRACK 22 AUDIO TITLE "Multiple Replication" PERFORMER "Don Davis" INDEX 01 00:00:00FILE "23. The Council Of Cool.wav" WAVE TRACK 23 AUDIO TITLE "The Council Of Cool" PERFORMER "Don Davis" INDEX 01 00:00:00FILE "24. Meeting The Merovingian.wav" WAVE TRACK 24 AUDIO TITLE "Meeting The Merovingian" PERFORMER "Don Davis" INDEX 01 00:00:00FILE "25. Niaiserie.wav" WAVE TRACK 25 AUDIO TITLE "Niaiserie" PERFORMER "Don Davis" INDEX 01 00:00:00FILE "26. Choice Is An Illusion.wav" WAVE TRACK 26 AUDIO TITLE "Choice Is An Illusion" PERFORMER "Don Davis" INDEX 01 00:00:00FILE "27. Sample This.wav" WAVE TRACK 27 AUDIO TITLE "Sample This" PERFORMER "Don Davis" INDEX 01 00:00:00FILE "28. Meet The Keymaker.wav" WAVE TRACK 28 AUDIO TITLE "Meet The Keymaker" PERFORMER "Don Davis" INDEX 01 00:00:00FILE "29. Some Skill.wav" WAVE TRACK 29 AUDIO TITLE "Some Skill" PERFORMER "Don Davis" INDEX 01 00:00:00FILE "30. Chateau.wav" WAVE TRACK 30 AUDIO TITLE "Chateau (performed by Rob Dougan)" PERFORMER "Rob Dougan" INDEX 01 00:00:00FILE "31. Chateau Swashbuckling.wav" WAVE TRACK 31 AUDIO TITLE "Chateau Swashbuckling" PERFORMER "Don Davis" INDEX 01 00:00:00
 
Exact Audio Copy V0.99 prebeta 5 from 4. May 2009

EAC extraction logfile from 25. March 2010, 17:09

Don Davis / The Matrix Reloaded (CD2)

Used drive : _NEC DVD_RW ND-4571A Adapter: 1 ID: 0

Read mode : SecureUtilize accurate stream : YesDefeat audio cache : YesMake use of C2 pointers : No

Read offset correction : 48Overread into Lead-In and Lead-Out : NoFill up missing offset samples with silence : YesDelete leading and trailing silent blocks : NoNull samples used in CRC calculations : YesUsed interface : Installed external ASPI interfaceGap handling : Appended to previous track

Used output format : User Defined EncoderSelected bitrate : 1024 kBit/sQuality : HighAdd ID3 tag : NoCommand line compressor : C:\Program Files\Exact Audio Copy\Flac\flac.exeAdditional command line options : -8 -T "artist=%a" -T "title=%t" -T "album=%g" -T "date=%y" -T "tracknumber=%n" -T "genre=%m" %s

TOC of the extracted CD

Track | Start | Length | Start sector | End sector --------------------------------------------------------- 1 | 0:00.00 | 2:18.16 | 0 | 10365 2 | 2:18.16 | 10:10.38 | 10366 | 56153 3 | 12:28.54 | 4:24.19 | 56154 | 75972 4 | 16:52.73 | 4:13.12 | 75973 | 94959 5 | 21:06.10 | 3:01.00 | 94960 | 108534 6 | 24:07.10 | 2:56.65 | 108535 | 121799 7 | 27:04.00 | 3:10.24 | 121800 | 136073 8 | 30:14.24 | 0:45.32 | 136074 | 139480 9 | 30:59.56 | 4:06.00 | 139481 | 157930 10 | 35:05.56 | 3:35.48 | 157931 | 174103 11 | 38:41.29 | 4:00.00 | 174104 | 192103 12 | 42:41.29 | 1:15.13 | 192104 | 197741

Track 1

Filename D:\Temp\Don Davis\2003 - The Matrix Reloaded Soundtrack (flac)\CD2\01. Double Trouble.wav

Peak level 98.9 % Track quality 100.0 % Test CRC 5C521F92 Copy CRC 5C521F92 Track not present in AccurateRip database Copy OK

Track 2

Filename D:\Temp\Don Davis\2003 - The Matrix Reloaded Soundtrack (flac)\CD2\02. Dante , Mona Lisa Overdrive (performed by Don Davis & Juno Reactor).wav

Peak level 100.0 % Track quality 100.0 % Test CRC 99717B82 Copy CRC 99717B82 Track not present in AccurateRip database Copy OK

Track 3

Filename D:\Temp\Don Davis\2003 - The Matrix Reloaded Soundtrack (flac)\CD2\03. Truck Vs. Truck.wav

Peak level 100.0 % Track quality 100.0 % Test CRC E95E759A Copy CRC E95E759A Track not present in AccurateRip database Copy OK

Track 4

Filename D:\Temp\Don Davis\2003 - The Matrix Reloaded Soundtrack (flac)\CD2\04. The Plan.wav

Peak level 98.7 % Track quality 100.0 % Test CRC BFE5CA4E Copy CRC BFE5CA4E Track not present in AccurateRip database Copy OK

Track 5

Filename D:\Temp\Don Davis\2003 - The Matrix Reloaded Soundtrack (flac)\CD2\05. Final Flight Of The Vigilant.wav

Peak level 99.9 % Track quality 99.9 % Test CRC 1E5040F9 Copy CRC 1E5040F9 Track not present in AccurateRip database Copy OK

Track 6

Filename D:\Temp\Don Davis\2003 - The Matrix Reloaded Soundtrack (flac)\CD2\06. Kill The Keymaster.wav

Peak level 97.9 % Track quality 100.0 % Test CRC B0453B76 Copy CRC B0453B76 Track not present in AccurateRip database Copy OK

Track 7

Filename D:\Temp\Don Davis\2003 - The Matrix Reloaded Soundtrack (flac)\CD2\07. Doddering Old Fool.wav

Peak level 99.7 % Track quality 100.0 % Test CRC E106FFB2 Copy CRC E106FFB2 Track not present in AccurateRip database Copy OK

Track 8

Filename D:\Temp\Don Davis\2003 - The Matrix Reloaded Soundtrack (flac)\CD2\08. The Problem Is Choice.wav

Peak level 100.0 % Track quality 100.0 % Test CRC 1248F322 Copy CRC 1248F322 Track not present in AccurateRip database Copy OK

Track 9

Filename D:\Temp\Don Davis\2003 - The Matrix Reloaded Soundtrack (flac)\CD2\09. Window Switch.wav

Peak level 100.0 % Track quality 100.0 % Test CRC 7CD717A1 Copy CRC 7CD717A1 Track not present in AccurateRip database Copy OK

Track 10

Filename D:\Temp\Don Davis\2003 - The Matrix Reloaded Soundtrack (flac)\CD2\10. Neo Miraculous.wav

Peak level 100.0 % Track quality 100.0 % Test CRC 924094B9 Copy CRC 924094B9 Track not present in AccurateRip database Copy OK

Track 11

Filename D:\Temp\Don Davis\2003 - The Matrix Reloaded Soundtrack (flac)\CD2\11. No More Nebuchadnezzar.wav

Peak level 100.0 % Track quality 100.0 % Test CRC BC262B43 Copy CRC BC262B43 Track not present in AccurateRip database Copy OK

Track 12

Filename D:\Temp\Don Davis\2003 - The Matrix Reloaded Soundtrack (flac)\CD2\12. Contusion Conclusion.wav

Peak level 99.2 % Track quality 100.0 % Test CRC 41419714 Copy CRC 41419714 Track not present in AccurateRip database Copy OK

None of the tracks are present in the AccurateRip database

No errors occurred

End of status report
 
REM GENRE SoundtrackREM DATE 2003REM DISCID F4116F11PERFORMER "Don Davis"TITLE "The Matrix Reloaded (CD2)"FILE "01. Double Trouble.wav" WAVE TRACK 01 AUDIO TITLE "Double Trouble" PERFORMER "Don Davis" INDEX 01 00:00:00FILE "02. Dante - Mona Lisa Overdrive.wav" WAVE TRACK 02 AUDIO TITLE "Dante / Mona Lisa Overdrive (performed by Don Davis & Juno Reactor)" PERFORMER "Don Davis & Ben Watkins" INDEX 01 00:00:00FILE "03. Truck Vs. Truck.wav" WAVE TRACK 03 AUDIO TITLE "Truck Vs. Truck" PERFORMER "Don Davis" INDEX 01 00:00:00FILE "04. The Plan.wav" WAVE TRACK 04 AUDIO TITLE "The Plan" PERFORMER "Don Davis" INDEX 01 00:00:00FILE "05. Final Flight Of The Vigilant.wav" WAVE TRACK 05 AUDIO TITLE "Final Flight Of The Vigilant" PERFORMER "Don Davis" INDEX 01 00:00:00FILE "06. Kill The Keymaster.wav" WAVE TRACK 06 AUDIO TITLE "Kill The Keymaster" PERFORMER "Don Davis" INDEX 01 00:00:00FILE "07. Doddering Old Fool.wav" WAVE TRACK 07 AUDIO TITLE "Doddering Old Fool" PERFORMER "Don Davis" INDEX 01 00:00:00FILE "08. The Problem Is Choice.wav" WAVE TRACK 08 AUDIO TITLE "The Problem Is Choice" PERFORMER "Don Davis" INDEX 01 00:00:00FILE "09. Window Switch.wav" WAVE TRACK 09 AUDIO TITLE "Window Switch" PERFORMER "Don Davis" INDEX 01 00:00:00FILE "10. Neo Miraculous.wav" WAVE TRACK 10 AUDIO TITLE "Neo Miraculous" PERFORMER "Don Davis" INDEX 01 00:00:00FILE "11. No More Nebuchadnezzar.wav" WAVE TRACK 11 AUDIO TITLE "No More Nebuchadnezzar" PERFORMER "Don Davis" INDEX 01 00:00:00FILE "12. Contusion Conclusion.wav" WAVE TRACK 12 AUDIO TITLE "Contusion Conclusion" PERFORMER "Don Davis" INDEX 01 00:00:00
 
 
 
 
 
 
CD1
01. Logos / Main Title (1:18)
02. Nothing But Blue Pills (0:35)
03. Ak, Colt And Mauser (1:14)
04. Our Lit Ovens (0:37)
05. Oracle Debacle (1:34)
06. The Trainman Cometh (feat. Juno Reactor) (2:41)
07. The Trainman Goeth (1:47)
08. Tetsujin (feat. Juno Reactor) (3:18)
09. The Road To Hell (3:21)
10. Time's Up (1:04)
11. The Road To Sourceville (1:21)
12. He Is You (1:33)
13. The First Goodbye (2:29)
14. The All-Knowing Oracle (3:04)
15. The Logos Location (4:07)
16. It's Crazy Zee (1:01)
17. Das Banegold (4:13)
18. The Bane Revelation (4:03)
19. The Smith Within Us (6:00)
20. Men In Metal (2:16)
21. Niobe's Run (2:11)
22. The Breach (1:55)
23. Boom Hilda (2:49)
24. Die Brunett Walkure (2:13)
25. Mjolner Mastication (1:11)

CD2
01. Charra Broiled (1:29)
02. Woman Can Drive (2:39)
03. Moribund Mifune (3:49)
04. Kid Fried (4:49)
05. To Our Snivel (1:26)
06. Neovision (3:17)
07. Saw Bitch Workhorse (4:00)
08. Trinity Definitely (4:12)
09. Deus Ex Machina (5:02)
10. Neodammerung (5:56)
11. Why, Mr. Anderson? (3:26)
12. Spirit Of The Universe (3:45)
13. Bridge Of Immortality (2:21)
14. For Neo (2:51)
15. Navras (feat. Juno Reactor) (9:05)
 
Exact Audio Copy V0.99 prebeta 5 from 4. May 2009

EAC extraction logfile from 25. March 2010, 17:42

Don Davis / The Matrix Revolutions (CD1)

Used drive : _NEC DVD_RW ND-4571A Adapter: 1 ID: 0

Read mode : SecureUtilize accurate stream : YesDefeat audio cache : YesMake use of C2 pointers : No

Read offset correction : 48Overread into Lead-In and Lead-Out : NoFill up missing offset samples with silence : YesDelete leading and trailing silent blocks : NoNull samples used in CRC calculations : YesUsed interface : Installed external ASPI interfaceGap handling : Appended to previous track

Used output format : User Defined EncoderSelected bitrate : 1024 kBit/sQuality : HighAdd ID3 tag : NoCommand line compressor : C:\Program Files\Exact Audio Copy\Flac\flac.exeAdditional command line options : -8 -T "artist=%a" -T "title=%t" -T "album=%g" -T "date=%y" -T "tracknumber=%n" -T "genre=%m" %s

TOC of the extracted CD

Track | Start | Length | Start sector | End sector --------------------------------------------------------- 1 | 0:00.00 | 1:18.23 | 0 | 5872 2 | 1:18.23 | 0:35.50 | 5873 | 8547 3 | 1:53.73 | 1:14.24 | 8548 | 14121 4 | 3:08.22 | 0:37.50 | 14122 | 16946 5 | 3:45.72 | 1:34.00 | 16947 | 23996 6 | 5:19.72 | 2:41.25 | 23997 | 36096 7 | 8:01.22 | 1:47.38 | 36097 | 44159 8 | 9:48.60 | 3:18.00 | 44160 | 59009 9 | 13:06.60 | 3:20.50 | 59010 | 74059 10 | 16:27.35 | 1:03.50 | 74060 | 78834 11 | 17:31.10 | 1:21.39 | 78835 | 84948 12 | 18:52.49 | 1:32.50 | 84949 | 91898 13 | 20:25.24 | 2:28.63 | 91899 | 103061 14 | 22:54.12 | 3:04.38 | 103062 | 116899 15 | 25:58.50 | 4:07.50 | 116900 | 135474 16 | 30:06.25 | 1:01.50 | 135475 | 140099 17 | 31:08.00 | 4:13.38 | 140100 | 159112 18 | 35:21.38 | 4:03.00 | 159113 | 177337 19 | 39:24.38 | 6:00.32 | 177338 | 204369 20 | 45:24.70 | 2:16.00 | 204370 | 214569 21 | 47:40.70 | 2:11.38 | 214570 | 224432 22 | 49:52.33 | 1:55.10 | 224433 | 233067 23 | 51:47.43 | 2:49.23 | 233068 | 245765 24 | 54:36.66 | 2:13.00 | 245766 | 255740 25 | 56:49.66 | 1:11.40 | 255741 | 261105

Track 1

Filename D:\Temp\Don Davis\2003 - The Matrix Revolutions Soundtrack (flac)\CD1\01. Logos , Main Title.wav

Peak level 94.6 % Track quality 100.0 % Test CRC 33E830E2 Copy CRC 33E830E2 Track not present in AccurateRip database Copy OK

Track 2

Filename D:\Temp\Don Davis\2003 - The Matrix Revolutions Soundtrack (flac)\CD1\02. Nothing But Blue Pills.wav

Peak level 32.7 % Track quality 100.0 % Test CRC 5790C834 Copy CRC 5790C834 Track not present in AccurateRip database Copy OK

Track 3

Filename D:\Temp\Don Davis\2003 - The Matrix Revolutions Soundtrack (flac)\CD1\03. Ak, Colt And Mauser.wav

Peak level 98.1 % Track quality 100.0 % Test CRC FC90C654 Copy CRC FC90C654 Track not present in AccurateRip database Copy OK

Track 4

Filename D:\Temp\Don Davis\2003 - The Matrix Revolutions Soundtrack (flac)\CD1\04. Our Lit Ovens.wav

Peak level 32.0 % Track quality 100.0 % Test CRC 5D78A63E Copy CRC 5D78A63E Track not present in AccurateRip database Copy OK

Track 5

Filename D:\Temp\Don Davis\2003 - The Matrix Revolutions Soundtrack (flac)\CD1\05. Oracle Debacle.wav

Peak level 45.3 % Track quality 100.0 % Test CRC 0B817C75 Copy CRC 0B817C75 Track not present in AccurateRip database Copy OK

Track 6

Filename D:\Temp\Don Davis\2003 - The Matrix Revolutions Soundtrack (flac)\CD1\06. The Trainman Cometh (feat. Juno Reactor).wav

Peak level 90.1 % Track quality 100.0 % Test CRC 12263E9B Copy CRC 12263E9B Track not present in AccurateRip database Copy OK

Track 7

Filename D:\Temp\Don Davis\2003 - The Matrix Revolutions Soundtrack (flac)\CD1\07. The Trainman Goeth.wav

Peak level 88.3 % Track quality 100.0 % Test CRC E5A8D227 Copy CRC E5A8D227 Track not present in AccurateRip database Copy OK

Track 8

Filename D:\Temp\Don Davis\2003 - The Matrix Revolutions Soundtrack (flac)\CD1\08. Sin, Toil, Extra Vermouth (Tetsujin) (feat. Juno Reactor).wav

Peak level 100.0 % Track quality 100.0 % Test CRC BC9DE6F7 Copy CRC BC9DE6F7 Track not present in AccurateRip database Copy OK

Track 9

Filename D:\Temp\Don Davis\2003 - The Matrix Revolutions Soundtrack (flac)\CD1\09. The Road To Hell.wav

Peak level 59.3 % Track quality 100.0 % Test CRC 23AC282C Copy CRC 23AC282C Track not present in AccurateRip database Copy OK

Track 10

Filename D:\Temp\Don Davis\2003 - The Matrix Revolutions Soundtrack (flac)\CD1\10. Time's Up.wav

Peak level 84.8 % Track quality 100.0 % Test CRC 090F4436 Copy CRC 090F4436 Track not present in AccurateRip database Copy OK

Track 11

Filename D:\Temp\Don Davis\2003 - The Matrix Revolutions Soundtrack (flac)\CD1\11. The Road To Sourceville.wav

Peak level 90.3 % Track quality 100.0 % Test CRC 90E2A157 Copy CRC 90E2A157 Track not present in AccurateRip database Copy OK

Track 12

Filename D:\Temp\Don Davis\2003 - The Matrix Revolutions Soundtrack (flac)\CD1\12. He Is You.wav

Peak level 94.3 % Track quality 100.0 % Test CRC F146FE62 Copy CRC F146FE62 Track not present in AccurateRip database Copy OK

Track 13

Filename D:\Temp\Don Davis\2003 - The Matrix Revolutions Soundtrack (flac)\CD1\13. The First Goodbye.wav

Peak level 93.4 % Track quality 100.0 % Test CRC 81B56B5B Copy CRC 81B56B5B Track not present in AccurateRip database Copy OK

Track 14

Filename D:\Temp\Don Davis\2003 - The Matrix Revolutions Soundtrack (flac)\CD1\14. The All-Knowing Oracle.wav

Peak level 98.3 % Track quality 100.0 % Test CRC 5E840EF2 Copy CRC 5E840EF2 Track not present in AccurateRip database Copy OK

Track 15

Filename D:\Temp\Don Davis\2003 - The Matrix Revolutions Soundtrack (flac)\CD1\15. The Logos Location.wav

Peak level 79.5 % Track quality 100.0 % Test CRC 1602E6A2 Copy CRC 1602E6A2 Track not present in AccurateRip database Copy OK

Track 16

Filename D:\Temp\Don Davis\2003 - The Matrix Revolutions Soundtrack (flac)\CD1\16. It's Crazy Zee.wav

Peak level 19.4 % Track quality 100.0 % Test CRC 588CDFCD Copy CRC 588CDFCD Track not present in AccurateRip database Copy OK

Track 17

Filename D:\Temp\Don Davis\2003 - The Matrix Revolutions Soundtrack (flac)\CD1\17. Das Banegold.wav

Peak level 89.6 % Track quality 100.0 % Test CRC 48C9EA3E Copy CRC 48C9EA3E Track not present in AccurateRip database Copy OK

Track 18

Filename D:\Temp\Don Davis\2003 - The Matrix Revolutions Soundtrack (flac)\CD1\18. The Bane Revelation.wav

Peak level 93.1 % Track quality 100.0 % Test CRC 781DC59B Copy CRC 781DC59B Track not present in AccurateRip database Copy OK

Track 19

Filename D:\Temp\Don Davis\2003 - The Matrix Revolutions Soundtrack (flac)\CD1\19. The Smith Within Us.wav

Peak level 92.0 % Track quality 100.0 % Test CRC 92C9B0DD Copy CRC 92C9B0DD Track not present in AccurateRip database Copy OK

Track 20

Filename D:\Temp\Don Davis\2003 - The Matrix Revolutions Soundtrack (flac)\CD1\20. Men In Metal.wav

Peak level 85.2 % Track quality 100.0 % Test CRC EE9CA9B2 Copy CRC EE9CA9B2 Track not present in AccurateRip database Copy OK

Track 21

Filename D:\Temp\Don Davis\2003 - The Matrix Revolutions Soundtrack (flac)\CD1\21. Niobe's Run.wav

Peak level 95.2 % Track quality 99.9 % Test CRC F3ED4122 Copy CRC F3ED4122 Track not present in AccurateRip database Copy OK

Track 22

Filename D:\Temp\Don Davis\2003 - The Matrix Revolutions Soundtrack (flac)\CD1\22. The Breach.wav

Peak level 93.2 % Track quality 100.0 % Test CRC 9EEB43F1 Copy CRC 9EEB43F1 Track not present in AccurateRip database Copy OK

Track 23

Filename D:\Temp\Don Davis\2003 - The Matrix Revolutions Soundtrack (flac)\CD1\23. Boom Hilda.wav

Peak level 100.0 % Track quality 100.0 % Test CRC E4B98E68 Copy CRC E4B98E68 Track not present in AccurateRip database Copy OK

Track 24

Filename D:\Temp\Don Davis\2003 - The Matrix Revolutions Soundtrack (flac)\CD1\24. Die Brunette Walkure.wav

Peak level 86.3 % Track quality 100.0 % Test CRC D4F23336 Copy CRC D4F23336 Track not present in AccurateRip database Copy OK

Track 25

Filename D:\Temp\Don Davis\2003 - The Matrix Revolutions Soundtrack (flac)\CD1\25. Mjolner Mastication.wav

Peak level 90.2 % Track quality 100.0 % Test CRC 7EFC1A8B Copy CRC 7EFC1A8B Track not present in AccurateRip database Copy OK

None of the tracks are present in the AccurateRip database

No errors occurred

End of status report
 
REM GENRE SoundtrackREM DATE 2003REM DISCID 550D9919PERFORMER "Don Davis"TITLE "The Matrix Revolutions (CD1)"FILE "01. Logos - Main Title.wav" WAVE TRACK 01 AUDIO TITLE "Logos / Main Title" PERFORMER "Don Davis" INDEX 01 00:00:00FILE "02. Nothing But Blue Pills.wav" WAVE TRACK 02 AUDIO TITLE "Nothing But Blue Pills" PERFORMER "Don Davis" INDEX 01 00:00:00FILE "03. Ak, Colt And Mauser.wav" WAVE TRACK 03 AUDIO TITLE "Ak, Colt And Mauser" PERFORMER "Don Davis" INDEX 01 00:00:00FILE "04. Our Lit Ovens.wav" WAVE TRACK 04 AUDIO TITLE "Our Lit Ovens" PERFORMER "Don Davis" INDEX 01 00:00:00FILE "05. Oracle Debacle.wav" WAVE TRACK 05 AUDIO TITLE "Oracle Debacle" PERFORMER "Don Davis" INDEX 01 00:00:00FILE "06. The Trainman Cometh.wav" WAVE TRACK 06 AUDIO TITLE "The Trainman Cometh (feat. Juno Reactor)" PERFORMER "Don Davis & Ben Watkins" INDEX 01 00:00:00FILE "07. The Trainman Goeth.wav" WAVE TRACK 07 AUDIO TITLE "The Trainman Goeth" PERFORMER "Don Davis" INDEX 01 00:00:00FILE "08. Sin, Toil, Extra Vermouth (Tetsujin).wav" WAVE TRACK 08 AUDIO TITLE "Sin, Toil, Extra Vermouth (Tetsujin) (feat. Juno Reactor)" PERFORMER "Don Davis & Ben Watkins" INDEX 01 00:00:00FILE "09. The Road To Hell.wav" WAVE TRACK 09 AUDIO TITLE "The Road To Hell" PERFORMER "Don Davis" INDEX 01 00:00:00FILE "10. Time's Up.wav" WAVE TRACK 10 AUDIO TITLE "Time's Up" PERFORMER "Don Davis" INDEX 01 00:00:00FILE "11. The Road To Sourceville.wav" WAVE TRACK 11 AUDIO TITLE "The Road To Sourceville" PERFORMER "Don Davis" INDEX 01 00:00:00FILE "12. He Is You.wav" WAVE TRACK 12 AUDIO TITLE "He Is You" PERFORMER "Don Davis" INDEX 01 00:00:00FILE "13. The First Goodbye.wav" WAVE TRACK 13 AUDIO TITLE "The First Goodbye" PERFORMER "Don Davis" INDEX 01 00:00:00FILE "14. The All-Knowing Oracle.wav" WAVE TRACK 14 AUDIO TITLE "The All-Knowing Oracle" PERFORMER "Don Davis" INDEX 01 00:00:00FILE "15. The Logos Location.wav" WAVE TRACK 15 AUDIO TITLE "The Logos Location" PERFORMER "Don Davis" INDEX 01 00:00:00FILE "16. It's Crazy Zee.wav" WAVE TRACK 16 AUDIO TITLE "It's Crazy Zee" PERFORMER "Don Davis" INDEX 01 00:00:00FILE "17. Das Banegold.wav" WAVE TRACK 17 AUDIO TITLE "Das Banegold" PERFORMER "Don Davis" INDEX 01 00:00:00FILE "18. The Bane Revelation.wav" WAVE TRACK 18 AUDIO TITLE "The Bane Revelation" PERFORMER "Don Davis" INDEX 01 00:00:00FILE "19. The Smith Within Us.wav" WAVE TRACK 19 AUDIO TITLE "The Smith Within Us" PERFORMER "Don Davis" INDEX 01 00:00:00FILE "20. Men In Metal.wav" WAVE TRACK 20 AUDIO TITLE "Men In Metal" PERFORMER "Don Davis" INDEX 01 00:00:00FILE "21. Niobe's Run.wav" WAVE TRACK 21 AUDIO TITLE "Niobe's Run" PERFORMER "Don Davis" INDEX 01 00:00:00FILE "22. The Breach.wav" WAVE TRACK 22 AUDIO TITLE "The Breach" PERFORMER "Don Davis" INDEX 01 00:00:00FILE "23. Boom Hilda.wav" WAVE TRACK 23 AUDIO TITLE "Boom Hilda" PERFORMER "Don Davis" INDEX 01 00:00:00FILE "24. Die Brunette Walkure.wav" WAVE TRACK 24 AUDIO TITLE "Die Brunette Walkure" PERFORMER "Don Davis" INDEX 01 00:00:00FILE "25. Mjolner Mastication.wav" WAVE TRACK 25 AUDIO TITLE "Mjolner Mastication" PERFORMER "Don Davis" INDEX 01 00:00:00
 
Exact Audio Copy V0.99 prebeta 5 from 4. May 2009

EAC extraction logfile from 25. March 2010, 18:09

Don Davis / The Matrix Revolutions (CD2)

Used drive : _NEC DVD_RW ND-4571A Adapter: 1 ID: 0

Read mode : SecureUtilize accurate stream : YesDefeat audio cache : YesMake use of C2 pointers : No

Read offset correction : 48Overread into Lead-In and Lead-Out : NoFill up missing offset samples with silence : YesDelete leading and trailing silent blocks : NoNull samples used in CRC calculations : YesUsed interface : Installed external ASPI interfaceGap handling : Appended to previous track

Used output format : User Defined EncoderSelected bitrate : 1024 kBit/sQuality : HighAdd ID3 tag : NoCommand line compressor : C:\Program Files\Exact Audio Copy\Flac\flac.exeAdditional command line options : -8 -T "artist=%a" -T "title=%t" -T "album=%g" -T "date=%y" -T "tracknumber=%n" -T "genre=%m" %s

TOC of the extracted CD

Track | Start | Length | Start sector | End sector --------------------------------------------------------- 1 | 0:00.00 | 1:29.38 | 0 | 6712 2 | 1:29.38 | 2:39.38 | 6713 | 18675 3 | 4:09.01 | 3:49.00 | 18676 | 35850 4 | 7:58.01 | 4:49.38 | 35851 | 57563 5 | 12:47.39 | 1:26.12 | 57564 | 64025 6 | 14:13.51 | 3:17.00 | 64026 | 78800 7 | 17:30.51 | 4:00.00 | 78801 | 96800 8 | 21:30.51 | 4:12.00 | 96801 | 115700 9 | 25:42.51 | 5:02.50 | 115701 | 138400 10 | 30:45.26 | 5:55.55 | 138401 | 165080 11 | 36:41.06 | 3:26.68 | 165081 | 180598 12 | 40:07.74 | 3:45.50 | 180599 | 197523 13 | 43:53.49 | 2:21.50 | 197524 | 208148 14 | 46:15.24 | 2:51.41 | 208149 | 221014 15 | 49:06.65 | 9:05.12 | 221015 | 261901

Track 1

Filename D:\Temp\Don Davis\2003 - The Matrix Revolutions Soundtrack (flac)\CD2\01. Charra Broiled.wav

Peak level 88.0 % Track quality 100.0 % Test CRC 5E689EBC Copy CRC 5E689EBC Track not present in AccurateRip database Copy OK

Track 2

Filename D:\Temp\Don Davis\2003 - The Matrix Revolutions Soundtrack (flac)\CD2\02. Woman Can Drive.wav

Peak level 90.1 % Track quality 100.0 % Test CRC E9F12B13 Copy CRC E9F12B13 Track not present in AccurateRip database Copy OK

Track 3

Filename D:\Temp\Don Davis\2003 - The Matrix Revolutions Soundtrack (flac)\CD2\03. Moribund Mifune.wav

Peak level 88.8 % Track quality 100.0 % Test CRC 47C180DC Copy CRC 47C180DC Track not present in AccurateRip database Copy OK

Track 4

Filename D:\Temp\Don Davis\2003 - The Matrix Revolutions Soundtrack (flac)\CD2\04. Kid Fried.wav

Peak level 100.0 % Track quality 100.0 % Test CRC 3EA3C549 Copy CRC 3EA3C549 Track not present in AccurateRip database Copy OK

Track 5

Filename D:\Temp\Don Davis\2003 - The Matrix Revolutions Soundtrack (flac)\CD2\05. To Our Snivel.wav

Peak level 86.3 % Track quality 100.0 % Test CRC 3C18BC11 Copy CRC 3C18BC11 Track not present in AccurateRip database Copy OK

Track 6

Filename D:\Temp\Don Davis\2003 - The Matrix Revolutions Soundtrack (flac)\CD2\06. Neovision.wav

Peak level 89.1 % Track quality 100.0 % Test CRC E3E853A1 Copy CRC E3E853A1 Track not present in AccurateRip database Copy OK

Track 7

Filename D:\Temp\Don Davis\2003 - The Matrix Revolutions Soundtrack (flac)\CD2\07. Saw Bitch Workhorse.wav

Peak level 92.0 % Track quality 100.0 % Test CRC 878C854B Copy CRC 878C854B Track not present in AccurateRip database Copy OK

Track 8

Filename D:\Temp\Don Davis\2003 - The Matrix Revolutions Soundtrack (flac)\CD2\08. Trinity Definitely.wav

Peak level 45.8 % Track quality 99.9 % Test CRC BACD91F1 Copy CRC BACD91F1 Track not present in AccurateRip database Copy OK

Track 9

Filename D:\Temp\Don Davis\2003 - The Matrix Revolutions Soundtrack (flac)\CD2\09. Deus Ex Machina.wav

Peak level 96.9 % Track quality 100.0 % Test CRC 3041901B Copy CRC 3041901B Track not present in AccurateRip database Copy OK

Track 10

Filename D:\Temp\Don Davis\2003 - The Matrix Revolutions Soundtrack (flac)\CD2\10. Neodammerung.wav

Peak level 92.4 % Track quality 100.0 % Test CRC DD00130B Copy CRC DD00130B Track not present in AccurateRip database Copy OK

Track 11

Filename D:\Temp\Don Davis\2003 - The Matrix Revolutions Soundtrack (flac)\CD2\11. Why, Mr. Anderson .wav

Peak level 89.8 % Track quality 100.0 % Test CRC 0D33DAB0 Copy CRC 0D33DAB0 Track not present in AccurateRip database Copy OK

Track 12

Filename D:\Temp\Don Davis\2003 - The Matrix Revolutions Soundtrack (flac)\CD2\12. Spirit Of The Universe.wav

Peak level 86.4 % Track quality 100.0 % Test CRC F245E402 Copy CRC F245E402 Track not present in AccurateRip database Copy OK

Track 13

Filename D:\Temp\Don Davis\2003 - The Matrix Revolutions Soundtrack (flac)\CD2\13. Bridge Of Immortality.wav

Peak level 85.1 % Track quality 100.0 % Test CRC E7527719 Copy CRC E7527719 Track not present in AccurateRip database Copy OK

Track 14

Filename D:\Temp\Don Davis\2003 - The Matrix Revolutions Soundtrack (flac)\CD2\14. For Neo.wav

Peak level 87.1 % Track quality 100.0 % Test CRC 9B7607C8 Copy CRC 9B7607C8 Track not present in AccurateRip database Copy OK

Track 15

Filename D:\Temp\Don Davis\2003 - The Matrix Revolutions Soundtrack (flac)\CD2\15. Navras (feat. Juno Reactor).wav

Peak level 100.0 % Track quality 100.0 % Test CRC BBD5126B Copy CRC BBD5126B Track not present in AccurateRip database Copy OK

None of the tracks are present in the AccurateRip database

No errors occurred

End of status report
 
REM GENRE SoundtrackREM DATE 2003REM DISCID E811C110PERFORMER "Don Davis"TITLE "The Matrix Revolutions (CD2)"FILE "01. Charra Broiled.wav" WAVE TRACK 01 AUDIO TITLE "Charra Broiled" PERFORMER "Don Davis" INDEX 01 00:00:00FILE "02. Woman Can Drive.wav" WAVE TRACK 02 AUDIO TITLE "Woman Can Drive" PERFORMER "Don Davis" INDEX 01 00:00:00FILE "03. Moribund Mifune.wav" WAVE TRACK 03 AUDIO TITLE "Moribund Mifune" PERFORMER "Don Davis" INDEX 01 00:00:00FILE "04. Kid Fried.wav" WAVE TRACK 04 AUDIO TITLE "Kid Fried" PERFORMER "Don Davis" INDEX 01 00:00:00FILE "05. To Our Snivel.wav" WAVE TRACK 05 AUDIO TITLE "To Our Snivel" PERFORMER "Don Davis" INDEX 01 00:00:00FILE "06. Neovision.wav" WAVE TRACK 06 AUDIO TITLE "Neovision" PERFORMER "Don Davis" INDEX 01 00:00:00FILE "07. Saw Bitch Workhorse.wav" WAVE TRACK 07 AUDIO TITLE "Saw Bitch Workhorse" PERFORMER "Don Davis" INDEX 01 00:00:00FILE "08. Trinity Definitely.wav" WAVE TRACK 08 AUDIO TITLE "Trinity Definitely" PERFORMER "Don Davis" INDEX 01 00:00:00FILE "09. Deus Ex Machina.wav" WAVE TRACK 09 AUDIO TITLE "Deus Ex Machina" PERFORMER "Don Davis" INDEX 01 00:00:00FILE "10. Neodammerung.wav" WAVE TRACK 10 AUDIO TITLE "Neodammerung" PERFORMER "Don Davis" INDEX 01 00:00:00FILE "11. Why, Mr. Anderson.wav" WAVE TRACK 11 AUDIO TITLE "Why, Mr. Anderson?" PERFORMER "Don Davis" INDEX 01 00:00:00FILE "12. Spirit Of The Universe.wav" WAVE TRACK 12 AUDIO TITLE "Spirit Of The Universe" PERFORMER "Don Davis" INDEX 01 00:00:00FILE "13. Bridge Of Immortality.wav" WAVE TRACK 13 AUDIO TITLE "Bridge Of Immortality" PERFORMER "Don Davis" INDEX 01 00:00:00FILE "14. For Neo.wav" WAVE TRACK 14 AUDIO TITLE "For Neo" PERFORMER "Don Davis" INDEX 01 00:00:00FILE "15. Navras (feat. Juno Reactor).wav" WAVE TRACK 15 AUDIO TITLE "Navras (feat. Juno Reactor)" PERFORMER "Don Davis & Ben Watkins" INDEX 01 00:00:00
 
 
 
 
 


Трекер:  [ 20-Дек-2010 15:37 ]

  

Скачать .torrent

Размер .torrent файла 30 KB


Размер: 1.51 GB
Хэш (hash) релиза: f2c7a98abd32105afb9e6b826d7e1f55960cef8e

bot

Топик был перенесен в форум Саундтреки к фильмам и мультфильмам (lossless)

Перенес AqvaGen

Хотите добавить комментарий к записи скачать торрент Матрица The Matrix; Матрица: Перезагрузка

!Обратная связь