Скачать через торрент музыку Queen Of The Damned Королева Проклятых бесплатно без регистрации torrent

Статистика раздачи
Размер:  154 MB   |    Зарегистрирован:  7 лет 1 месяц   |    .torrent скачан:  71 раз   |   
Раздают:  1  
   
загрузка...
 
Автор Сообщение

Galfimbul

avatar Galfimbul


Queen Of The Damned / Королева Проклятых
Жанр: Score
Год выпуска диска: 2002
Производитель диска: USA
Аудио кодек: FLAC
Тип рипа: tracks+.cue
Битрейт аудио: lossless
Продолжительность: 29:58

Трэклист:

01. Queen Of The Damned
02. Jesse's Dream
03. On The Beach
04. Secret Passage
05. Air Lestat
06. A Walk In The Park
07. Maharet
08. Prodigal Sun
09. The Queen Is Dead
10. Long Live Jesse

Exact Audio Copy V0.99 prebeta 4 from 23. January 2008

EAC extraction logfile from 3. May 2009, 20:00

Richard Gibbs / Queen Of The Damned

Used drive : PHILIPS DVD+-RW SDVD8820 Adapter: 1 ID: 0

Read mode : Secure
Utilize accurate stream : Yes
Defeat audio cache : Yes
Make use of C2 pointers : No

Read offset correction : 6
Overread into Lead-In and Lead-Out : No
Fill up missing offset samples with silence : Yes
Delete leading and trailing silent blocks : No
Null samples used in CRC calculations : Yes
Used interface : Native Win32 interface for Win NT & 2000
Gap handling : Appended to previous track

Used output format : User Defined Encoder
Selected bitrate : 128 kBit/s
Quality : High
Add ID3 tag : No
Command line compressor : C:\Program Files\FLAC\flac.exe
Additional command line options : -V -8 -T "artist=%a" -T "title=%t" -T "album=%g" -T "date=%y" -T "tracknumber=%n" -T "genre=%m" %s

TOC of the extracted CD

Track | Start | Length | Start sector | End sector
---------------------------------------------------------
1 | 0:00.00 | 2:18.60 | 0 | 10409
2 | 2:18.60 | 2:22.35 | 10410 | 21094
3 | 4:41.20 | 4:44.60 | 21095 | 42454
4 | 9:26.05 | 5:47.35 | 42455 | 68514
5 | 15:13.40 | 1:34.25 | 68515 | 75589
6 | 16:47.65 | 2:05.52 | 75590 | 85016
7 | 18:53.42 | 1:59.63 | 85017 | 94004
8 | 20:53.30 | 3:10.20 | 94005 | 108274
9 | 24:03.50 | 4:41.45 | 108275 | 129394
10 | 28:45.20 | 1:12.72 | 129395 | 134866

Track 1

Filename C:\muzik\Queen of the Damned\01. Queen of the Damned.wav

Pre-gap length 0:00:02.00

Peak level 98.8 %
Track quality 99.9 %
Test CRC 32808172
Copy CRC 32808172
Accurately ripped (confidence 5) [37ACFD01]
Copy OK

Track 2

Filename C:\muzik\Queen of the Damned\02. Jesse's Dream.wav

Peak level 98.8 %
Track quality 99.9 %
Test CRC 109726DB
Copy CRC 109726DB
Accurately ripped (confidence 5) [D0680798]
Copy OK

Track 3

Filename C:\muzik\Queen of the Damned\03. On The Beach.wav

Peak level 98.8 %
Track quality 100.0 %
Test CRC 3665AF5B
Copy CRC 3665AF5B
Accurately ripped (confidence 5) [D7C2A3F0]
Copy OK

Track 4

Filename C:\muzik\Queen of the Damned\04. Secret Passage.wav

Peak level 98.8 %
Track quality 100.0 %
Test CRC ABB2278A
Copy CRC ABB2278A
Accurately ripped (confidence 5) [B955ADC5]
Copy OK

Track 5

Filename C:\muzik\Queen of the Damned\05. Air Lestat.wav

Pre-gap length 0:00:01.44

Peak level 98.8 %
Track quality 100.0 %
Test CRC 3B5121F8
Copy CRC 3B5121F8
Accurately ripped (confidence 5) [2342B052]
Copy OK

Track 6

Filename C:\muzik\Queen of the Damned\06. A Walk In The Park.wav

Peak level 98.8 %
Track quality 100.0 %
Test CRC 19576649
Copy CRC 19576649
Accurately ripped (confidence 5) [F18FD41A]
Copy OK

Track 7

Filename C:\muzik\Queen of the Damned\07. Maharet.wav

Peak level 61.6 %
Track quality 99.9 %
Test CRC 27BA9CDC
Copy CRC 27BA9CDC
Accurately ripped (confidence 5) [F222A929]
Copy OK

Track 8

Filename C:\muzik\Queen of the Damned\08. Prodigal Sun.wav

Peak level 100.0 %
Track quality 99.9 %
Test CRC 1DEF8B1F
Copy CRC 1DEF8B1F
Accurately ripped (confidence 5) [7BFE4562]
Copy OK

Track 9

Filename C:\muzik\Queen of the Damned\09. The Queen Is Dead.wav

Peak level 98.8 %
Track quality 99.9 %
Test CRC 4A08E6F1
Copy CRC 4A08E6F1
Accurately ripped (confidence 5) [3875B94F]
Copy OK

Track 10

Filename C:\muzik\Queen of the Damned\10. Long Live Jesse.wav

Peak level 98.8 %
Track quality 100.0 %
Test CRC D8500BB6
Copy CRC D8500BB6
Accurately ripped (confidence 5) [F494F0DD]
Copy OK

All tracks accurately ripped

No errors occurred

End of status report


Трекер:  [ 07-Июл-2011 22:30 ]

  

Скачать .torrent

Размер .torrent файла 13 KB


Размер: 154 MB
Хэш (hash) релиза: 98141f6be029357af4783c26ef8337ddd9776f07

Еще никто не оставлял запись к записи скачать торрент Queen Of The Damned Королева Проклятых . Будь первым!

!Обратная связь