Скачать через торрент музыку Алиса в стране чудес Alice In Wonderland бесплатно без регистрации torrent

Статистика раздачи
Размер:  248 MB   |    Зарегистрирован:  7 лет 4 месяца   |    .torrent скачан:  54 раза   |   
Раздают:  1  
   
загрузка...
 
Автор Сообщение

AqvaGen


Алиса в стране чудес / Alice In Wonderland
Music by Danny Elfman


Жанр: Score | Год выпуска диска: 2010 | Производитель диска: Walt Disney Records
Аудио кодек: FLAC | Тип рипа: tracks+.cue | Битрейт аудио: lossless
Продолжительность: 00:51:09

01. Alice's Theme [05:07]
02. Little Alice [01:34]
03. Proposal (Down The Hole) [02:58]
04. Doors [01:51]
05. Drink Me [02:48]
06. Into The Garden [00:49]
07. Alice Reprise #1 [00:26]
08. Bandersnatched [02:42]
09. Finding Absolem [02:41]
10. Alice Reprise #2 [00:38]
11. The Cheshire Cat [02:07]
12. Alice And Bayard's Journey [04:04]
13. Alice Reprise #3 [00:24]
14. Alice Escapes [01:07]
15. The White Queen [00:36]
16. Only A Dream [01:25]
17. The Dungeon [02:18]
18. Alice Decides [03:14]
19. Alice Reprise #4 [01:01]
20. Going To Battle [02:41]
21. The Final Confrontation [01:41]
22. Blood Of The Jabberwocky [02:37]
23. Alice Returns [03:14]
24. Alice Reprise #5 [02:55]
 
X Lossless Decoder version 20100323 (116.7)

XLD extraction logfile from 2010-03-26 18:58:31 -0400

Danny Elfman / Alice In Wonderland

Used drive : LITE-ON DVDRW SHW-160P6S (revision PS09)

Use cdparanoia mode : YES (CDParanoia III 10.2 engine)Disable audio cache : OK for the drive with cache less than 2750KBMake use of C2 pointers : NORead offset correction : 6Max retry count : 100

TOC of the extracted CD Track | Start | Length | Start sector | End sector --------------------------------------------------------- 1 | 00:00:28 | 05:07:17 | 28 | 23069 2 | 05:07:45 | 01:34:11 | 23070 | 30130 3 | 06:41:56 | 02:58:07 | 30131 | 43487 4 | 09:39:63 | 01:51:48 | 43488 | 51860 5 | 11:31:36 | 02:48:15 | 51861 | 64475 6 | 14:19:51 | 00:49:72 | 64476 | 68222 7 | 15:09:48 | 00:26:68 | 68223 | 70240 8 | 15:36:41 | 02:42:00 | 70241 | 82390 9 | 18:18:41 | 02:41:33 | 82391 | 94498 10 | 20:59:74 | 00:38:33 | 94499 | 97381 11 | 21:38:32 | 02:07:21 | 97382 | 106927 12 | 23:45:53 | 04:04:30 | 106928 | 125257 13 | 27:50:08 | 00:24:00 | 125258 | 127057 14 | 28:14:08 | 01:07:22 | 127058 | 132104 15 | 29:21:30 | 00:36:58 | 132105 | 134862 16 | 29:58:13 | 01:25:63 | 134863 | 141300 17 | 31:24:01 | 02:18:55 | 141301 | 151705 18 | 33:42:56 | 03:14:51 | 151706 | 166306 19 | 36:57:32 | 01:01:40 | 166307 | 170921 20 | 37:58:72 | 02:41:44 | 170922 | 183040 21 | 40:40:41 | 01:41:31 | 183041 | 190646 22 | 42:21:72 | 02:37:24 | 190647 | 202445 23 | 44:59:21 | 03:14:69 | 202446 | 217064 24 | 48:14:15 | 02:55:58 | 217065 | 230247

Track 01 Filename : /Volumes/FILM HD 3/XLD/Danny Elfman - 2010 - Alice In Wonderland/01 - Alice's Theme.flac

Pre-gap length : 00:02:28

CRC32 hash (test run) : 81D37651 CRC32 hash : 81D37651 CRC32 hash (skip zero) : 4E45C194 AccurateRip signature : F4471212 ->Track not present in AccurateRip database. Statistics Read error : 0 Skipped (treated as error) : 0 Edge jitter error (maybe fixed) : 0 Atom jitter error (maybe fixed) : 0 Drift error (maybe fixed) : 0 Dropped bytes error (maybe fixed) : 0 Duplicated bytes error (maybe fixed) : 0 Inconsistency in error sectors : 0

Track 02 Filename : /Volumes/FILM HD 3/XLD/Danny Elfman - 2010 - Alice In Wonderland/02 - Little Alice.flac

CRC32 hash (test run) : 6A286ABA CRC32 hash : 6A286ABA CRC32 hash (skip zero) : 0F34AFF9 AccurateRip signature : 29A8D2B5 ->Track not present in AccurateRip database. Statistics Read error : 0 Skipped (treated as error) : 0 Edge jitter error (maybe fixed) : 0 Atom jitter error (maybe fixed) : 0 Drift error (maybe fixed) : 0 Dropped bytes error (maybe fixed) : 0 Duplicated bytes error (maybe fixed) : 0 Inconsistency in error sectors : 0

Track 03 Filename : /Volumes/FILM HD 3/XLD/Danny Elfman - 2010 - Alice In Wonderland/03 - Proposal (Down The Hole).flac

CRC32 hash (test run) : 7FE9FEF8 CRC32 hash : 7FE9FEF8 CRC32 hash (skip zero) : 7653A3D4 AccurateRip signature : 2D1D41E2 ->Track not present in AccurateRip database. Statistics Read error : 0 Skipped (treated as error) : 0 Edge jitter error (maybe fixed) : 0 Atom jitter error (maybe fixed) : 0 Drift error (maybe fixed) : 0 Dropped bytes error (maybe fixed) : 0 Duplicated bytes error (maybe fixed) : 0 Inconsistency in error sectors : 0

Track 04 Filename : /Volumes/FILM HD 3/XLD/Danny Elfman - 2010 - Alice In Wonderland/04 - Doors.flac

CRC32 hash (test run) : 2C4E90F0 CRC32 hash : 2C4E90F0 CRC32 hash (skip zero) : 8BF58CCE AccurateRip signature : DFACE449 ->Track not present in AccurateRip database. Statistics Read error : 0 Skipped (treated as error) : 0 Edge jitter error (maybe fixed) : 0 Atom jitter error (maybe fixed) : 0 Drift error (maybe fixed) : 0 Dropped bytes error (maybe fixed) : 0 Duplicated bytes error (maybe fixed) : 0 Inconsistency in error sectors : 0

Track 05 Filename : /Volumes/FILM HD 3/XLD/Danny Elfman - 2010 - Alice In Wonderland/05 - Drink Me.flac

CRC32 hash (test run) : BA324D3B CRC32 hash : BA324D3B CRC32 hash (skip zero) : C4A343AE AccurateRip signature : 4B46B348 ->Track not present in AccurateRip database. Statistics Read error : 0 Skipped (treated as error) : 0 Edge jitter error (maybe fixed) : 0 Atom jitter error (maybe fixed) : 0 Drift error (maybe fixed) : 0 Dropped bytes error (maybe fixed) : 0 Duplicated bytes error (maybe fixed) : 0 Inconsistency in error sectors : 0

Track 06 Filename : /Volumes/FILM HD 3/XLD/Danny Elfman - 2010 - Alice In Wonderland/06 - Into The Garden.flac

CRC32 hash (test run) : 0DE5C98C CRC32 hash : 0DE5C98C CRC32 hash (skip zero) : 4DAFEC1B AccurateRip signature : 4799E5FF ->Track not present in AccurateRip database. Statistics Read error : 0 Skipped (treated as error) : 0 Edge jitter error (maybe fixed) : 0 Atom jitter error (maybe fixed) : 0 Drift error (maybe fixed) : 0 Dropped bytes error (maybe fixed) : 0 Duplicated bytes error (maybe fixed) : 0 Inconsistency in error sectors : 0

Track 07 Filename : /Volumes/FILM HD 3/XLD/Danny Elfman - 2010 - Alice In Wonderland/07 - Alice Reprise #1.flac

CRC32 hash (test run) : 6D15F0DC CRC32 hash : 6D15F0DC CRC32 hash (skip zero) : C6EC8573 AccurateRip signature : FB69F40E ->Track not present in AccurateRip database. Statistics Read error : 0 Skipped (treated as error) : 0 Edge jitter error (maybe fixed) : 0 Atom jitter error (maybe fixed) : 0 Drift error (maybe fixed) : 0 Dropped bytes error (maybe fixed) : 0 Duplicated bytes error (maybe fixed) : 0 Inconsistency in error sectors : 0

Track 08 Filename : /Volumes/FILM HD 3/XLD/Danny Elfman - 2010 - Alice In Wonderland/08 - Bandersnatched.flac

CRC32 hash (test run) : FEAA1A6B CRC32 hash : FEAA1A6B CRC32 hash (skip zero) : 9CFE0251 AccurateRip signature : C73FF74E ->Track not present in AccurateRip database. Statistics Read error : 0 Skipped (treated as error) : 0 Edge jitter error (maybe fixed) : 0 Atom jitter error (maybe fixed) : 0 Drift error (maybe fixed) : 0 Dropped bytes error (maybe fixed) : 0 Duplicated bytes error (maybe fixed) : 0 Inconsistency in error sectors : 0

Track 09 Filename : /Volumes/FILM HD 3/XLD/Danny Elfman - 2010 - Alice In Wonderland/09 - Finding Absolem.flac

CRC32 hash (test run) : 8467609A CRC32 hash : 8467609A CRC32 hash (skip zero) : 546A35E8 AccurateRip signature : 4B6B2227 ->Track not present in AccurateRip database. Statistics Read error : 0 Skipped (treated as error) : 0 Edge jitter error (maybe fixed) : 0 Atom jitter error (maybe fixed) : 0 Drift error (maybe fixed) : 0 Dropped bytes error (maybe fixed) : 0 Duplicated bytes error (maybe fixed) : 0 Inconsistency in error sectors : 0

Track 10 Filename : /Volumes/FILM HD 3/XLD/Danny Elfman - 2010 - Alice In Wonderland/10 - Alice Reprise #2.flac

CRC32 hash (test run) : 1242ED29 CRC32 hash : 1242ED29 CRC32 hash (skip zero) : 6A41CD00 AccurateRip signature : 29C8AA8E ->Track not present in AccurateRip database. Statistics Read error : 0 Skipped (treated as error) : 0 Edge jitter error (maybe fixed) : 0 Atom jitter error (maybe fixed) : 0 Drift error (maybe fixed) : 0 Dropped bytes error (maybe fixed) : 0 Duplicated bytes error (maybe fixed) : 0 Inconsistency in error sectors : 0

Track 11 Filename : /Volumes/FILM HD 3/XLD/Danny Elfman - 2010 - Alice In Wonderland/11 - The Cheshire Cat.flac

CRC32 hash (test run) : 20B03895 CRC32 hash : 20B03895 CRC32 hash (skip zero) : 8E76D49D AccurateRip signature : B4AF1E92 ->Track not present in AccurateRip database. Statistics Read error : 0 Skipped (treated as error) : 0 Edge jitter error (maybe fixed) : 0 Atom jitter error (maybe fixed) : 0 Drift error (maybe fixed) : 0 Dropped bytes error (maybe fixed) : 0 Duplicated bytes error (maybe fixed) : 0 Inconsistency in error sectors : 0

Track 12 Filename : /Volumes/FILM HD 3/XLD/Danny Elfman - 2010 - Alice In Wonderland/12 - Alice And Bayard's Journey.flac

CRC32 hash (test run) : 061F400E CRC32 hash : 061F400E CRC32 hash (skip zero) : B417B20C AccurateRip signature : B67FD692 ->Track not present in AccurateRip database. Statistics Read error : 0 Skipped (treated as error) : 0 Edge jitter error (maybe fixed) : 0 Atom jitter error (maybe fixed) : 0 Drift error (maybe fixed) : 0 Dropped bytes error (maybe fixed) : 0 Duplicated bytes error (maybe fixed) : 0 Inconsistency in error sectors : 0

Track 13 Filename : /Volumes/FILM HD 3/XLD/Danny Elfman - 2010 - Alice In Wonderland/13 - Alice Reprise #3.flac

CRC32 hash (test run) : 66282442 CRC32 hash : 66282442 CRC32 hash (skip zero) : B196C9CE AccurateRip signature : D9E16F49 ->Track not present in AccurateRip database. Statistics Read error : 0 Skipped (treated as error) : 0 Edge jitter error (maybe fixed) : 0 Atom jitter error (maybe fixed) : 0 Drift error (maybe fixed) : 0 Dropped bytes error (maybe fixed) : 0 Duplicated bytes error (maybe fixed) : 0 Inconsistency in error sectors : 0

Track 14 Filename : /Volumes/FILM HD 3/XLD/Danny Elfman - 2010 - Alice In Wonderland/14 - Alice Escapes.flac

CRC32 hash (test run) : 8D2FBBD3 CRC32 hash : 8D2FBBD3 CRC32 hash (skip zero) : 1D12EB3C AccurateRip signature : 57A1A6C0 ->Track not present in AccurateRip database. Statistics Read error : 0 Skipped (treated as error) : 0 Edge jitter error (maybe fixed) : 0 Atom jitter error (maybe fixed) : 0 Drift error (maybe fixed) : 0 Dropped bytes error (maybe fixed) : 0 Duplicated bytes error (maybe fixed) : 0 Inconsistency in error sectors : 0

Track 15 Filename : /Volumes/FILM HD 3/XLD/Danny Elfman - 2010 - Alice In Wonderland/15 - The White Queen.flac

CRC32 hash (test run) : E180D043 CRC32 hash : E180D043 CRC32 hash (skip zero) : F4F5F6E3 AccurateRip signature : 9B09EC14 ->Track not present in AccurateRip database. Statistics Read error : 0 Skipped (treated as error) : 0 Edge jitter error (maybe fixed) : 0 Atom jitter error (maybe fixed) : 0 Drift error (maybe fixed) : 0 Dropped bytes error (maybe fixed) : 0 Duplicated bytes error (maybe fixed) : 0 Inconsistency in error sectors : 0

Track 16 Filename : /Volumes/FILM HD 3/XLD/Danny Elfman - 2010 - Alice In Wonderland/16 - Only A Dream.flac

CRC32 hash (test run) : FBB885B7 CRC32 hash : FBB885B7 CRC32 hash (skip zero) : C584E1AD AccurateRip signature : 668B18F8 ->Track not present in AccurateRip database. Statistics Read error : 0 Skipped (treated as error) : 0 Edge jitter error (maybe fixed) : 0 Atom jitter error (maybe fixed) : 0 Drift error (maybe fixed) : 0 Dropped bytes error (maybe fixed) : 0 Duplicated bytes error (maybe fixed) : 0 Inconsistency in error sectors : 0

Track 17 Filename : /Volumes/FILM HD 3/XLD/Danny Elfman - 2010 - Alice In Wonderland/17 - The Dungeon.flac

CRC32 hash (test run) : FC99D92B CRC32 hash : FC99D92B CRC32 hash (skip zero) : 0759E62B AccurateRip signature : 2652CC0D ->Track not present in AccurateRip database. Statistics Read error : 0 Skipped (treated as error) : 0 Edge jitter error (maybe fixed) : 0 Atom jitter error (maybe fixed) : 0 Drift error (maybe fixed) : 0 Dropped bytes error (maybe fixed) : 0 Duplicated bytes error (maybe fixed) : 0 Inconsistency in error sectors : 0

Track 18 Filename : /Volumes/FILM HD 3/XLD/Danny Elfman - 2010 - Alice In Wonderland/18 - Alice Decides.flac

CRC32 hash (test run) : 8D9AD218 CRC32 hash : 8D9AD218 CRC32 hash (skip zero) : E107D9FC AccurateRip signature : 21CA82B5 ->Track not present in AccurateRip database. Statistics Read error : 0 Skipped (treated as error) : 0 Edge jitter error (maybe fixed) : 0 Atom jitter error (maybe fixed) : 0 Drift error (maybe fixed) : 0 Dropped bytes error (maybe fixed) : 0 Duplicated bytes error (maybe fixed) : 0 Inconsistency in error sectors : 0

Track 19 Filename : /Volumes/FILM HD 3/XLD/Danny Elfman - 2010 - Alice In Wonderland/19 - Alice Reprise #4.flac

CRC32 hash (test run) : 7A095559 CRC32 hash : 7A095559 CRC32 hash (skip zero) : 9324CFA5 AccurateRip signature : AB042AF3 ->Track not present in AccurateRip database. Statistics Read error : 0 Skipped (treated as error) : 0 Edge jitter error (maybe fixed) : 0 Atom jitter error (maybe fixed) : 0 Drift error (maybe fixed) : 0 Dropped bytes error (maybe fixed) : 0 Duplicated bytes error (maybe fixed) : 0 Inconsistency in error sectors : 0

Track 20 Filename : /Volumes/FILM HD 3/XLD/Danny Elfman - 2010 - Alice In Wonderland/20 - Going To Battle.flac

CRC32 hash (test run) : B36F98F5 CRC32 hash : B36F98F5 CRC32 hash (skip zero) : 8E312A27 AccurateRip signature : 8D1DFB82 ->Track not present in AccurateRip database. Statistics Read error : 0 Skipped (treated as error) : 0 Edge jitter error (maybe fixed) : 0 Atom jitter error (maybe fixed) : 0 Drift error (maybe fixed) : 0 Dropped bytes error (maybe fixed) : 0 Duplicated bytes error (maybe fixed) : 0 Inconsistency in error sectors : 0

Track 21 Filename : /Volumes/FILM HD 3/XLD/Danny Elfman - 2010 - Alice In Wonderland/21 - The Final Confrontation.flac

CRC32 hash (test run) : 22720DDF CRC32 hash : 22720DDF CRC32 hash (skip zero) : 995EB9E7 AccurateRip signature : E7D0924E ->Track not present in AccurateRip database. Statistics Read error : 0 Skipped (treated as error) : 0 Edge jitter error (maybe fixed) : 0 Atom jitter error (maybe fixed) : 0 Drift error (maybe fixed) : 0 Dropped bytes error (maybe fixed) : 0 Duplicated bytes error (maybe fixed) : 0 Inconsistency in error sectors : 0

Track 22 Filename : /Volumes/FILM HD 3/XLD/Danny Elfman - 2010 - Alice In Wonderland/22 - Blood Of The Jabberwocky.flac

CRC32 hash (test run) : 1F58765E CRC32 hash : 1F58765E CRC32 hash (skip zero) : C16C642A AccurateRip signature : 8CE172D6 ->Track not present in AccurateRip database. Statistics Read error : 0 Skipped (treated as error) : 0 Edge jitter error (maybe fixed) : 0 Atom jitter error (maybe fixed) : 0 Drift error (maybe fixed) : 0 Dropped bytes error (maybe fixed) : 0 Duplicated bytes error (maybe fixed) : 0 Inconsistency in error sectors : 0

Track 23 Filename : /Volumes/FILM HD 3/XLD/Danny Elfman - 2010 - Alice In Wonderland/23 - Alice Returns.flac

CRC32 hash (test run) : DD9D0EDB CRC32 hash : DD9D0EDB CRC32 hash (skip zero) : 349BD913 AccurateRip signature : 6683BC61 ->Track not present in AccurateRip database. Statistics Read error : 0 Skipped (treated as error) : 0 Edge jitter error (maybe fixed) : 0 Atom jitter error (maybe fixed) : 0 Drift error (maybe fixed) : 0 Dropped bytes error (maybe fixed) : 0 Duplicated bytes error (maybe fixed) : 0 Inconsistency in error sectors : 0

Track 24 Filename : /Volumes/FILM HD 3/XLD/Danny Elfman - 2010 - Alice In Wonderland/24 - Alice Reprise #5.flac

CRC32 hash (test run) : 2A20571F CRC32 hash : 2A20571F CRC32 hash (skip zero) : 27953C15 AccurateRip signature : 851669D7 ->Track not present in AccurateRip database. Statistics Read error : 0 Skipped (treated as error) : 0 Edge jitter error (maybe fixed) : 0 Atom jitter error (maybe fixed) : 0 Drift error (maybe fixed) : 0 Dropped bytes error (maybe fixed) : 0 Duplicated bytes error (maybe fixed) : 0 Inconsistency in error sectors : 0

No errors occurred

End of status report
 
TITLE "Alice In Wonderland"PERFORMER "Danny Elfman"CATALOG 0050087152451REM GENRE "Soundtrack"REM DATE 2010FILE "01 - Alice's Theme.wav" WAVE TRACK 01 AUDIO TITLE "Alice's Theme" ISRC USWD11037727 INDEX 00 00:00:00 INDEX 01 00:00:28FILE "02 - Little Alice.wav" WAVE TRACK 02 AUDIO TITLE "Little Alice" ISRC USWD11037728 INDEX 01 00:00:00FILE "03 - Proposal (Down The Hole).wav" WAVE TRACK 03 AUDIO TITLE "Proposal (Down The Hole)" ISRC USWD11037729 INDEX 01 00:00:00FILE "04 - Doors.wav" WAVE TRACK 04 AUDIO TITLE "Doors" ISRC USWD11037730 INDEX 01 00:00:00FILE "05 - Drink Me.wav" WAVE TRACK 05 AUDIO TITLE "Drink Me" ISRC USWD11037731 INDEX 01 00:00:00FILE "06 - Into The Garden.wav" WAVE TRACK 06 AUDIO TITLE "Into The Garden" ISRC USWD11037732 INDEX 01 00:00:00FILE "07 - Alice Reprise #1.wav" WAVE TRACK 07 AUDIO TITLE "Alice Reprise #1" ISRC USWD11037733 INDEX 01 00:00:00FILE "08 - Bandersnatched.wav" WAVE TRACK 08 AUDIO TITLE "Bandersnatched" ISRC USWD11037734 INDEX 01 00:00:00FILE "09 - Finding Absolem.wav" WAVE TRACK 09 AUDIO TITLE "Finding Absolem" ISRC USWD11037735 INDEX 01 00:00:00FILE "10 - Alice Reprise #2.wav" WAVE TRACK 10 AUDIO TITLE "Alice Reprise #2" ISRC USWD11037736 INDEX 01 00:00:00FILE "11 - The Cheshire Cat.wav" WAVE TRACK 11 AUDIO TITLE "The Cheshire Cat" ISRC USWD11037737 INDEX 01 00:00:00FILE "12 - Alice And Bayard's Journey.wav" WAVE TRACK 12 AUDIO TITLE "Alice And Bayard's Journey" ISRC USWD11037738 INDEX 01 00:00:00FILE "13 - Alice Reprise #3.wav" WAVE TRACK 13 AUDIO TITLE "Alice Reprise #3" ISRC USWD11037740 INDEX 01 00:00:00FILE "14 - Alice Escapes.wav" WAVE TRACK 14 AUDIO TITLE "Alice Escapes" ISRC USWD11037741 INDEX 01 00:00:00FILE "15 - The White Queen.wav" WAVE TRACK 15 AUDIO TITLE "The White Queen" ISRC USWD11037742 INDEX 01 00:00:00FILE "16 - Only A Dream.wav" WAVE TRACK 16 AUDIO TITLE "Only A Dream" ISRC USWD11037743 INDEX 01 00:00:00FILE "17 - The Dungeon.wav" WAVE TRACK 17 AUDIO TITLE "The Dungeon" ISRC USWD11037744 INDEX 01 00:00:00FILE "18 - Alice Decides.wav" WAVE TRACK 18 AUDIO TITLE "Alice Decides" ISRC USWD11037745 INDEX 01 00:00:00FILE "19 - Alice Reprise #4.wav" WAVE TRACK 19 AUDIO TITLE "Alice Reprise #4" ISRC USWD11037747 INDEX 01 00:00:00FILE "20 - Going To Battle.wav" WAVE TRACK 20 AUDIO TITLE "Going To Battle" ISRC USWD11037748 INDEX 01 00:00:00FILE "21 - The Final Confrontation.wav" WAVE TRACK 21 AUDIO TITLE "The Final Confrontation" ISRC USWD11037749 INDEX 01 00:00:00FILE "22 - Blood Of The Jabberwocky.wav" WAVE TRACK 22 AUDIO TITLE "Blood Of The Jabberwocky" ISRC USWD11037750 INDEX 01 00:00:00FILE "23 - Alice Returns.wav" WAVE TRACK 23 AUDIO TITLE "Alice Returns" ISRC USWD11037751 INDEX 01 00:00:00FILE "24 - Alice Reprise #5.wav" WAVE TRACK 24 AUDIO TITLE "Alice Reprise #5" ISRC USWD11037752 INDEX 01 00:00:00


Трекер:  [ 19-Дек-2010 15:08 ]

  

Скачать .torrent

Размер .torrent файла 21 KB


Размер: 248 MB
Хэш (hash) релиза: 56e7c2680a5c03338e4481be0f8432660822f89d

bot

Топик был перенесен в форум Саундтреки к фильмам и мультфильмам (lossless)

Перенес AqvaGen

Хотите добавить комментарий к записи скачать торрент Алиса в стране чудес Alice In Wonderland

!Обратная связь