Скачать через торрент музыку VA - Twilight Сумерки - 2008, FLAC бесплатно без регистрации torrent

Статистика раздачи
Размер:  295 MB   |    Зарегистрирован:  7 лет 1 месяц   |    .torrent скачан:  67 раз   |   
Раздают:  1  
   
загрузка...
 
Автор Сообщение

Galfimbul

avatar Galfimbul


Various Artists - Twilight / Сумерки

Жанр: Soundtrack
Год выпуска диска: 2008
Производитель диска: EU
Аудио кодек: FLAC
Тип рипа: image+.cue
Битрейт аудио: lossless
Продолжительность: 45:33

Трэклист:
01. Supermassive Black Hole / Muse [0:03:31.05]
02. Decode / Paramore [0:04:21.72]
03. Full Moon / The Black Ghosts [0:03:50.05]
04. Leave Out All The Rest / Linkin Park [0:03:19.72]
05. Spotlight (Twilight Mix) (Soundtrack Version) / Mute Math [0:03:20.54]
06. Go All The Way (Into The Twilight) / Perry Farrell [0:03:27.27]
07. Tremble for My Beloved / Collective Soul [0:03:53.02]
08. I Caught Myself / Paramore [0:03:55.33]
09. Eyes On Fire / Blue Foundation [0:05:01.26]
10. Never Think / Rob Pattinson [0:04:30.69]
11. Flightless Bird, American Mouth / Iron And Wine [0:04:02.31]
12. Bella's Lullaby / Carter Burwell [0:02:19.38]

Доп. информация: Диск пока отсутствует в базе данных AccurateRip, не успел еще попасть, наверное. Ведь вышел совсем недавно. Музыка очень симпатичная, я решил диск срочно раздать так как заметил проблемы с раздачами этого саунд-трэка в mp3-форматах.

Информация о фильме (информация с сайта Кинокадр): Семнадцатилетняя девушка Бэлла вместе с отцом переезжает в небольшой городок, где встречает парня своей мечты — бледного, молчаливого и загадочного. Как все бледные, молчаливые и загадочные парни — этот тоже оказывается вампиром. Ну и как все хорошие вампиры он с мамой, папой, братиками и сестричками не нападает на людей. Но вампирская политика — штука тонкая, а если у тебя роман со смертной — то вообще впору в склепе запираться.
 
Exact Audio Copy V0.99 prebeta 4 from 23. January 2008

EAC extraction logfile from 25. January 2009, 0:40

Various / Twilight Original Motion Picture Soundtrack

Used drive : HL-DT-STDVDRAM_GSA-T20N Adapter: 0 ID: 0

Read mode : SecureUtilize accurate stream : YesDefeat audio cache : YesMake use of C2 pointers : No

Read offset correction : 667Overread into Lead-In and Lead-Out : NoFill up missing offset samples with silence : YesDelete leading and trailing silent blocks : NoNull samples used in CRC calculations : YesUsed interface : Native Win32 interface for Win NT & 2000

Used output format : User Defined EncoderSelected bitrate : 768 kBit/sQuality : HighAdd ID3 tag : NoCommand line compressor : C:\Program Files\Exact Audio Copy\FLAC\FLAC.EXEAdditional command line options : -6 -V -T "ARTIST=%a" -T "TITLE=%t" -T "ALBUM=%g" -T "DATE=%y" -T "TRACKNUMBER=%n" -T "GENRE=%m" -T "COMMENT=%e" %s -o %d

TOC of the extracted CD

Track | Start | Length | Start sector | End sector --------------------------------------------------------- 1 | 0:00.00 | 3:31.05 | 0 | 15829 2 | 3:31.05 | 4:21.72 | 15830 | 35476 3 | 7:53.02 | 3:50.05 | 35477 | 52731 4 | 11:43.07 | 3:19.72 | 52732 | 67728 5 | 15:03.04 | 3:20.54 | 67729 | 82782 6 | 18:23.58 | 3:27.27 | 82783 | 98334 7 | 21:51.10 | 3:53.02 | 98335 | 115811 8 | 25:44.12 | 3:55.33 | 115812 | 133469 9 | 29:39.45 | 5:01.26 | 133470 | 156070 10 | 34:40.71 | 4:30.69 | 156071 | 176389 11 | 39:11.65 | 4:02.31 | 176390 | 194570 12 | 43:14.21 | 2:19.38 | 194571 | 205033

Range status and errors

Selected range

Filename C:\Torrent\Own shares\Soundtrack - Twilight.wav

Peak level 100.0 % Range quality 100.0 % Copy CRC 0863E80D Copy OK

No errors occurred

AccurateRip summary

Track 1 not present in databaseTrack 2 not present in databaseTrack 3 not present in databaseTrack 4 not present in databaseTrack 5 not present in databaseTrack 6 not present in databaseTrack 7 not present in databaseTrack 8 not present in databaseTrack 9 not present in databaseTrack 10 not present in databaseTrack 11 not present in databaseTrack 12 not present in database

None of the tracks are present in the AccurateRip database

End of status report


Трекер:  [ 07-Июл-2011 22:29 ]

  

Скачать .torrent

Размер .torrent файла 12 KB


Размер: 295 MB
Хэш (hash) релиза: 738f916b13fcfbdb23cae2e5baa8c238d6b16421

Еще никто не оставлял запись к записи скачать торрент VA - Twilight Сумерки - 2008, FLAC . Будь первым!

!Обратная связь