Скачать через торрент музыку A.R.Rahman - Slumdog Millionaire Миллионер из трущоб - 2008, FLAC бесплатно без регистрации torrent

Статистика раздачи
Размер:  332 MB   |    Зарегистрирован:  7 лет 4 месяца   |    .torrent скачан:  50 раз   |   
Раздают:  1  
   
загрузка...
 
Автор Сообщение

Galfimbul

avatar Galfimbul


A.R.Rahman - Slumdog Millionaire / Миллионер из трущоб

Жанр: ost,soundtrack
Год выпуска диска: 2008
Производитель диска: Interscope Records
Аудио кодек: FLAC
Тип рипа: tracks+.cue
Битрейт аудио: lossless
Продолжительность: 51.05
Трэклист:
01. A.R. Rahman, M.I.A. - O... Saya - 3:34
(M.I.A./A.R. Rahman)
02. A.R. Rahman - Riots - 2:00
(A.R. Rahman)
03. A.R. Rahman - Mausam & Escape - 3:53
(A.R. Rahman)
04. M.I.A. - Paper Planes - 3:24
(Arulpragasam/Headon, Simonon/Jones/William Pentz/Strummer)
05. M.I.A. - Paper Planes [DFA Remix] - 5:49
(Arulpragasam/Headon, Simonon/Jones/William Pentz/Strummer)
06. A.R. Rahman, Alka Yagnik, Ila Arun - Ringa Ringa - 4:15
(Raquib Alam/A.R. Rahman)
07. A.R. Rahman, Palakkad Sriram, Madhumitha - Liquid Dance - 2:59
(A.R. Rahman)
08. A.R. Rahman, Suzanne - Latika's Theme - 3:09
(A.R. Rahman)
09. Sonu Nigam, Mahalaxmi Iyer, Alidha Chinai - Aaj Ki Raat - 6:07
(Javed Akhtar/Loy, Shankar Ehsaan)
10. A.R. Rahman, Madhumitha - Millionaire - 2:44
(A.R. Rahman)
11. A.R. Rahman, BlaaZe, Tanvi Shah - Gangsta Blues - 3:42
(Blaaze/A.R. Rahman)
12. A.R. Rahman, Suzanne - Dreams on Fire - 4:09
(Blaaze/Paar, Wendy/A.R. Rahman)
13. A.R. Rahman, Sukhvinder Singh, Tanvi Shah, Mahalaxmi, Vijay Prakash - Jai Ho - 5:19
(Gulzar/A.R. Rahman/Tanvi Shah)
Exact Audio Copy V0.99 prebeta 4 from 23. January 2008

EAC extraction logfile from 20. January 2009, 14:07

Various / Slumdog Millionaire Soundtrack

Used drive : PIONEER DVD-RW DVR-105 Adapter: 3 ID: 0

Read mode : Secure
Utilize accurate stream : Yes
Defeat audio cache : Yes
Make use of C2 pointers : No

Read offset correction : 48
Overread into Lead-In and Lead-Out : No
Fill up missing offset samples with silence : Yes
Delete leading and trailing silent blocks : No
Null samples used in CRC calculations : Yes
Used interface : Native Win32 interface for Win NT & 2000
Gap handling : Appended to previous track

Used output format : User Defined Encoder
Selected bitrate : 128 kBit/s
Quality : High
Add ID3 tag : No
Command line compressor : C:\Program Files\Exact Audio Copy\flac.exe.
Additional command line options : -V -5 -T "artist=%a" -T "title=%t" -T "album=%g" -T "date=%y" -T "tracknumber=%n" -T "genre=%m" %s

TOC of the extracted CD

Track | Start | Length | Start sector | End sector
---------------------------------------------------------
1 | 0:00.00 | 3:33.61 | 0 | 16035
2 | 3:33.61 | 1:59.39 | 16036 | 24999
3 | 5:33.25 | 3:52.63 | 25000 | 42462
4 | 9:26.13 | 3:23.45 | 42463 | 57732
5 | 12:49.58 | 5:49.27 | 57733 | 83934
6 | 18:39.10 | 4:15.35 | 83935 | 103094
7 | 22:54.45 | 2:58.71 | 103095 | 116515
8 | 25:53.41 | 3:09.28 | 116516 | 130718
9 | 29:02.69 | 6:07.31 | 130719 | 158274
10 | 35:10.25 | 2:44.32 | 158275 | 170606
11 | 37:54.57 | 3:41.73 | 170607 | 187254
12 | 41:36.55 | 4:08.43 | 187255 | 205897
13 | 45:45.23 | 5:19.26 | 205898 | 229848

Track 1

Filename F:\Download\Slumdog Millionaire Soundtrack (FLAC)\01 - Various - O Saya .wav

Pre-gap length 0:00:02.00

Peak level 97.7 %
Track quality 100.0 %
Test CRC A4B21ED0
Copy CRC A4B21ED0
Copy OK

Track 2

Filename F:\Download\Slumdog Millionaire Soundtrack (FLAC)\02 - Various - Riots .wav

Peak level 98.8 %
Track quality 99.9 %
Test CRC 940825E1
Copy CRC 940825E1
Copy OK

Track 3

Filename F:\Download\Slumdog Millionaire Soundtrack (FLAC)\03 - Various - Mausam & Escape .wav

Peak level 97.7 %
Track quality 100.0 %
Test CRC FF02531C
Copy CRC FF02531C
Copy OK

Track 4

Filename F:\Download\Slumdog Millionaire Soundtrack (FLAC)\04 - Various - Paper Planes .wav

Peak level 97.7 %
Track quality 100.0 %
Test CRC AB2A7A16
Copy CRC AB2A7A16
Copy OK

Track 5

Filename F:\Download\Slumdog Millionaire Soundtrack (FLAC)\05 - Various - Paper Planes DFA Remix.wav

Peak level 97.7 %
Track quality 100.0 %
Test CRC 2B453B5B
Copy CRC 2B453B5B
Copy OK

Track 6

Filename F:\Download\Slumdog Millionaire Soundtrack (FLAC)\06 - Various - Ringa Ringa .wav

Peak level 97.7 %
Track quality 100.0 %
Test CRC 50640B4A
Copy CRC 50640B4A
Copy OK

Track 7

Filename F:\Download\Slumdog Millionaire Soundtrack (FLAC)\07 - Various - Liquid Dance .wav

Peak level 97.7 %
Track quality 100.0 %
Test CRC C0C2F6C3
Copy CRC C0C2F6C3
Copy OK

Track 8

Filename F:\Download\Slumdog Millionaire Soundtrack (FLAC)\08 - Various - Latika s Theme .wav

Peak level 97.7 %
Track quality 100.0 %
Test CRC A787D928
Copy CRC A787D928
Copy OK

Track 9

Filename F:\Download\Slumdog Millionaire Soundtrack (FLAC)\09 - Various - Aaj Ki Raat .wav

Peak level 97.7 %
Track quality 100.0 %
Test CRC 24AA70AA
Copy CRC 24AA70AA
Copy OK

Track 10

Filename F:\Download\Slumdog Millionaire Soundtrack (FLAC)\10 - Various - Millionaire .wav

Peak level 97.7 %
Track quality 100.0 %
Test CRC 9302522E
Copy CRC 9302522E
Copy OK

Track 11

Filename F:\Download\Slumdog Millionaire Soundtrack (FLAC)\11 - Various - Gangsta Blues .wav

Peak level 98.8 %
Track quality 100.0 %
Test CRC 3E086D77
Copy CRC 3E086D77
Copy OK

Track 12

Filename F:\Download\Slumdog Millionaire Soundtrack (FLAC)\12 - Various - Dreams on Fire .wav

Peak level 97.7 %
Track quality 100.0 %
Test CRC 71EC1E47
Copy CRC 71EC1E47
Copy OK

Track 13

Filename F:\Download\Slumdog Millionaire Soundtrack (FLAC)\13 - Various - Jai Ho .wav

Peak level 98.8 %
Track quality 100.0 %
Test CRC 370A3EA6
Copy CRC 370A3EA6
Copy OK

No errors occurred

End of status report


Трекер:  [ 07-Июл-2011 22:29 ]

  

Скачать .torrent

Размер .torrent файла 15 KB


Размер: 332 MB
Хэш (hash) релиза: 263bd47a11ed05312f87360a2bcd1d6ec471cd97

Еще никто не оставлял запись к записи скачать торрент A.R.Rahman - Slumdog Millionaire Миллионер из трущоб - 2008, FLAC . Будь первым!

!Обратная связь