Скачать через торрент музыку бесплатно без регистрации torrent

Статистика раздачи
Размер:  336 MB   |    Зарегистрирован:  7 лет 7 месяцев   |    .torrent скачан:  60 раз   |   
Раздают:  1  
   
загрузка...
 
Автор Сообщение

AqvaGen


(500) дней лета / (500) Days of Summer

Жанр: Soundtrack
Год выпуска диска: 2009
Производитель диска: США
Аудио кодек: FLAC
Тип рипа: tracks+.cue
Битрейт аудио: lossless
Продолжительность: 00:52:26

Трэклист:
01. Mychael Danna & Rob Simonsen - A Story Of Boy Meets Girl (1:35)
02. Regina Spektor - Us (4:50)
03. The Smiths - There Is A Light That Never Goes Out (4:04)
04. Black Lips - Bad Kids (2:08)
05. The Smiths - Please, Please, Please, Let Me Get What I Want (1:53)
06. Doves - There Goes The Fear (6:56)
07. Hall & Oates - You Make My Dreams (3:05)
08. The Temper Trap - Sweet Disposition (3:53)
09. Carla Bruni - Quelqu'un M'a Dit (2:44)
10. Feist - Mushaboom (3:45)
11. Regina Spektor - Hero (3:32)
12. Simon & Garfunkel - Bookends (1:21)
13. Wolfmother - Vagabond (3:47)
14. Mumm-Ra - She's Got You High (3:26)
15. Meaghan Smith - Here Comes Your Man (3:14)
16. She & Him - Please, Please, Please, Let Me Get What I Want (2:12)
 
Exact Audio Copy V0.99 prebeta 5 from 4. May 2009

EAC extraction logfile from 23. July 2009, 19:18

Various / (500) Days Of Summer (Music From The Motion Picture)

Used drive : TOSHIBA DVDW/HD TS-L802A Adapter: 0 ID: 0

Read mode : SecureUtilize accurate stream : YesDefeat audio cache : YesMake use of C2 pointers : No

Read offset correction : 696Overread into Lead-In and Lead-Out : NoFill up missing offset samples with silence : YesDelete leading and trailing silent blocks : NoNull samples used in CRC calculations : YesUsed interface : Native Win32 interface for Win NT & 2000Gap handling : Appended to previous track

Used output format : User Defined EncoderSelected bitrate : 128 kBit/sQuality : HighAdd ID3 tag : NoCommand line compressor : C:\Program Files\Exact Audio Copy\Flac\flac.exeAdditional command line options : -V -8 -T "artist=%a" -T "title=%t" -T "album=%g" -T "date=%y" -T "tracknumber=%n" -T "genre=%m" %s

TOC of the extracted CD

Track | Start | Length | Start sector | End sector --------------------------------------------------------- 1 | 0:00.00 | 1:35.29 | 0 | 7153 2 | 1:35.29 | 4:49.63 | 7154 | 28891 3 | 6:25.17 | 4:03.65 | 28892 | 47181 4 | 10:29.07 | 2:08.27 | 47182 | 56808 5 | 12:37.34 | 1:52.49 | 56809 | 65257 6 | 14:30.08 | 6:56.00 | 65258 | 96457 7 | 21:26.08 | 3:05.31 | 96458 | 110363 8 | 24:31.39 | 3:53.31 | 110364 | 127869 9 | 28:24.70 | 2:44.18 | 127870 | 140187 10 | 31:09.13 | 3:44.46 | 140188 | 157033 11 | 34:53.59 | 3:31.68 | 157034 | 172926 12 | 38:25.52 | 1:20.65 | 172927 | 178991 13 | 39:46.42 | 3:47.04 | 178992 | 196020 14 | 43:33.46 | 3:25.53 | 196021 | 211448 15 | 46:59.24 | 3:13.72 | 211449 | 225995 16 | 50:13.21 | 2:12.37 | 225996 | 235932

Track 1

Filename D:\Music\Various - 2009 - (500) Days Of Summer (Music From The Motion Picture)\01 - Mychael Danna & Rob Simonsen - A Story Of Boy Meets Girl.wav

Pre-gap length 0:00:02.00

Peak level 89.1 % Track quality 100.0 % Test CRC B6D019CA Copy CRC B6D019CA Track not present in AccurateRip database Copy OK

Track 2

Filename D:\Music\Various - 2009 - (500) Days Of Summer (Music From The Motion Picture)\02 - Regina Spektor - Us.wav

Peak level 97.7 % Track quality 100.0 % Test CRC D7807D2C Copy CRC D7807D2C Track not present in AccurateRip database Copy OK

Track 3

Filename D:\Music\Various - 2009 - (500) Days Of Summer (Music From The Motion Picture)\03 - The Smiths - There Is A Light That Never Goes Out.wav

Peak level 94.6 % Track quality 100.0 % Test CRC B5C6E05D Copy CRC B5C6E05D Track not present in AccurateRip database Copy OK

Track 4

Filename D:\Music\Various - 2009 - (500) Days Of Summer (Music From The Motion Picture)\04 - Black Lips - Bad Kids.wav

Peak level 96.5 % Track quality 100.0 % Test CRC DF782B6A Copy CRC DF782B6A Track not present in AccurateRip database Copy OK

Track 5

Filename D:\Music\Various - 2009 - (500) Days Of Summer (Music From The Motion Picture)\05 - The Smiths - Please, Please, Please, Let Me Get What I Want.wav

Pre-gap length 0:00:01.23

Peak level 97.2 % Track quality 100.0 % Test CRC 360613DA Copy CRC 360613DA Track not present in AccurateRip database Copy OK

Track 6

Filename D:\Music\Various - 2009 - (500) Days Of Summer (Music From The Motion Picture)\06 - Doves - There Goes The Fear.wav

Pre-gap length 0:00:01.14

Peak level 94.4 % Track quality 100.0 % Test CRC E1A4DF36 Copy CRC E1A4DF36 Track not present in AccurateRip database Copy OK

Track 7

Filename D:\Music\Various - 2009 - (500) Days Of Summer (Music From The Motion Picture)\07 - Hall & Oates - You Make My Dreams.wav

Pre-gap length 0:00:01.51

Peak level 98.3 % Track quality 100.0 % Test CRC 185C91CC Copy CRC 185C91CC Track not present in AccurateRip database Copy OK

Track 8

Filename D:\Music\Various - 2009 - (500) Days Of Summer (Music From The Motion Picture)\08 - The Temper Trap - Sweet Disposition.wav

Pre-gap length 0:00:01.07

Peak level 99.8 % Track quality 99.9 % Test CRC 79935066 Copy CRC 79935066 Track not present in AccurateRip database Copy OK

Track 9

Filename D:\Music\Various - 2009 - (500) Days Of Summer (Music From The Motion Picture)\09 - Carla Bruni - Quelqu'un M'a Dit.wav

Pre-gap length 0:00:01.13

Peak level 99.5 % Track quality 100.0 % Test CRC D8A830E2 Copy CRC D8A830E2 Track not present in AccurateRip database Copy OK

Track 10

Filename D:\Music\Various - 2009 - (500) Days Of Summer (Music From The Motion Picture)\10 - Feist - Mushaboom.wav

Peak level 100.0 % Track quality 100.0 % Test CRC 49F3B9AB Copy CRC 49F3B9AB Track not present in AccurateRip database Copy OK

Track 11

Filename D:\Music\Various - 2009 - (500) Days Of Summer (Music From The Motion Picture)\11 - Regina Spektor - Hero.wav

Pre-gap length 0:00:01.12

Peak level 98.7 % Track quality 100.0 % Test CRC 071AA460 Copy CRC 071AA460 Track not present in AccurateRip database Copy OK

Track 12

Filename D:\Music\Various - 2009 - (500) Days Of Summer (Music From The Motion Picture)\12 - Simon & Garfunkel - Bookends.wav

Pre-gap length 0:00:02.21

Peak level 93.3 % Track quality 100.0 % Test CRC 6F4554B0 Copy CRC 6F4554B0 Track not present in AccurateRip database Copy OK

Track 13

Filename D:\Music\Various - 2009 - (500) Days Of Summer (Music From The Motion Picture)\13 - Wolfmother - Vagabond.wav

Peak level 96.6 % Track quality 100.0 % Test CRC DA4B0474 Copy CRC DA4B0474 Track not present in AccurateRip database Copy OK

Track 14

Filename D:\Music\Various - 2009 - (500) Days Of Summer (Music From The Motion Picture)\14 - Mumm-Ra - She's Got You High.wav

Peak level 100.0 % Track quality 100.0 % Test CRC 00B54CA7 Copy CRC 00B54CA7 Track not present in AccurateRip database Copy OK

Track 15

Filename D:\Music\Various - 2009 - (500) Days Of Summer (Music From The Motion Picture)\15 - Meaghan Smith - Here Comes Your Man.wav

Peak level 98.5 % Track quality 100.0 % Test CRC 313A060A Copy CRC 313A060A Track not present in AccurateRip database Copy OK

Track 16

Filename D:\Music\Various - 2009 - (500) Days Of Summer (Music From The Motion Picture)\16 - She & Him - Please, Please, Please, Let Me Get What I Want.wav

Peak level 98.8 % Track quality 100.0 % Test CRC 05B250C5 Copy CRC 05B250C5 Track not present in AccurateRip database Copy OK

None of the tracks are present in the AccurateRip database

No errors occurred

End of status report


Трекер:  [ 20-Дек-2010 15:19 ]

  

Скачать .torrent

Размер .torrent файла 15 KB


Размер: 336 MB
Хэш (hash) релиза: 2e99cf4f2d71ce2c5b204bdb30911806de99726a

bot

Топик был перенесен в форум Саундтреки к фильмам и мультфильмам (lossless)

Перенес AqvaGen

Хотите добавить комментарий к записи скачать торрент

!Обратная связь