Скачать через торрент музыку Angelo Badalamenti - Twin Peaks " Fire Walk With Me" - 1992, FLAC бесплатно без регистрации torrent

Статистика раздачи
Размер:  306 MB   |    Зарегистрирован:  7 лет 4 месяца   |    .torrent скачан:  71 раз   |   
Раздают:  1  
   
загрузка...
 
Автор Сообщение

Galfimbul

avatar Galfimbul


Angelo Badalamenti - Twin Peaks " Fire Walk With Me"



Жанр: Soundtrack
Год выпуска диска: 1992
Производитель диска: Germany
Аудио кодек: FLAC
Тип рипа: image+.cue
Битрейт аудио: lossless
Продолжительность: 57:02
Трэклист:
1 Theme From Twin Peaks - Fire Walk With Me (6:40)
2 The Pine Float (3:58)
3 Sycamore Trees (3:52)
4 Don't Do Anything (I Wouldn't Do) (7:17)
5 A Real Indication (5:31)
6 Questions In A World Of Blue (4:50)
7 The Pink Room (4:02)
8 The Black Dog Runs At Night (1:45)
9 Best Friends (2:12)
10 Moving Through Time (6:41)
11 Montage From Twin Peaks - Girl Talk / Birds In Hell / Laura Palmer's Theme / Falling (5:27)
12 The Voice Of Love (3:55)
 
Exact Audio Copy V0.99 prebeta 4 from 23. January 2008

EAC extraction logfile from 17. December 2008, 16:48

Angelo Badalamenti / Twin Peaks - Fire Walk With Me

Used drive : _NEC DVD_RW ND-4570A Adapter: 1 ID: 0

Read mode : SecureUtilize accurate stream : YesDefeat audio cache : YesMake use of C2 pointers : No

Read offset correction : 48Overread into Lead-In and Lead-Out : NoFill up missing offset samples with silence : YesDelete leading and trailing silent blocks : NoNull samples used in CRC calculations : YesUsed interface : Native Win32 interface for Win NT & 2000

Used output format : User Defined EncoderSelected bitrate : 1024 kBit/sQuality : HighAdd ID3 tag : NoCommand line compressor : C:\Program Files\Exact Audio Copy\FLAC\FLAC.EXEAdditional command line options : -6 -V -T "ARTIST=%a" -T "TITLE=%t" -T "ALBUM=%g" -T "DATE=%y" -T "TRACKNUMBER=%n" -T "GENRE=%m" -T "COMMENT=%e" %s -o %d

TOC of the extracted CD

Track | Start | Length | Start sector | End sector --------------------------------------------------------- 1 | 0:00.00 | 6:46.60 | 0 | 30509 2 | 6:46.60 | 4:03.55 | 30510 | 48789 3 | 10:50.40 | 3:58.03 | 48790 | 66642 4 | 14:48.43 | 7:21.07 | 66643 | 99724 5 | 22:09.50 | 5:38.10 | 99725 | 125084 6 | 27:47.60 | 4:54.15 | 125085 | 147149 7 | 32:42.00 | 4:06.15 | 147150 | 165614 8 | 36:48.15 | 1:48.58 | 165615 | 173772 9 | 38:36.73 | 2:17.10 | 173773 | 184057 10 | 40:54.08 | 6:44.67 | 184058 | 214424 11 | 47:39.00 | 5:30.35 | 214425 | 239209 12 | 53:09.35 | 3:52.58 | 239210 | 256667

Range status and errors

Selected range

Filename E:\раздача\Angelo Badalamenti - Twin Peaks - Fire Walk With Me\Angelo Badalamenti - Twin Peaks - Fire Walk With Me.wav

Peak level 99.8 % Range quality 99.9 % Test CRC D260659B Copy CRC D260659B Copy OK

No errors occurred

AccurateRip summary

Track 1 accurately ripped (confidence 4) [6447669E]Track 2 accurately ripped (confidence 4) [D2253F56]Track 3 accurately ripped (confidence 4) [95A7B23E]Track 4 accurately ripped (confidence 4) [6BC0F8AF]Track 5 accurately ripped (confidence 4) [5311B096]Track 6 accurately ripped (confidence 4) [5589BA8F]Track 7 accurately ripped (confidence 4) [CFCC8FE2]Track 8 accurately ripped (confidence 4) [E806FDA8]Track 9 accurately ripped (confidence 4) [D735ED9B]Track 10 accurately ripped (confidence 4) [EC125434]Track 11 accurately ripped (confidence 4) [307A6766]Track 12 accurately ripped (confidence 4) [3E2D345D]

All tracks accurately ripped

End of status report


Трекер:  [ 07-Июл-2011 22:28 ]

  

Скачать .torrent

Размер .torrent файла 13 KB


Размер: 306 MB
Хэш (hash) релиза: 08552926becd7bfaee83afd2711d343ef2fa380d

Еще никто не оставлял запись к записи скачать торрент Angelo Badalamenti - Twin Peaks " Fire Walk With Me" - 1992, FLAC . Будь первым!

!Обратная связь