Скачать через торрент музыку Desperado - 1995, APE бесплатно без регистрации torrent

Статистика раздачи
Размер:  351 MB   |    Зарегистрирован:  7 лет 1 месяц   |    .torrent скачан:  53 раза   |   
Раздают:  1  
   
загрузка...
 
Автор Сообщение

Galfimbul

avatar Galfimbul


Desperado

Страна: USA
Жанр: Soundtrack
Год выпуска: 1995
Формат: APE (image + .cue)
Битрейт аудио: lossless
Продолжительность: 59:33

Трэклист:
01. Los Lobos feat. Antonio Banderas - Cancion Del Mariachi (Morena De Mi Corazon)
02. Dire Straits - Six Blade Knife
03. Link Wray & His Ray Men - Jack The Ripper
04. Latin Playboys - Manifold de Amour
05. Latin Playboys - Forever Night Shade Mary
06. Roger & The Gypsies - Pass The Hatchet
07. Los Lobos - Bar Fight
08. Tito & Tarantula - Strange Face Of Love
09. Los Lobos - Bucho's Gracias / Navajas Attacks
10. Los Lobos - Bulletproof
11. Carlos Santana - Bella
12. Salma Hayek - Quedate Aqui
13. Los Lobos - Rooftop Action
14. Los Lobos - Phone Call
15. Tito & Tarantula - White Train (Showdown)
16. Tito & Tarantula - Back ToThe House That Love Built
17. Los Lobos - Let Love Reign
18. Los Lobos - Mariachi Suite

Доп. информация:
Sony Music Entertainment Inc.
EPC 480944 2
Сканы прилигаются...
Exact Audio Copy V0.99 prebeta 3 from 28. July 2007

EAC extraction logfile from 23. December 2007, 22:42

The Soundtrack / Desperado

Used drive : PLEXTOR CD-R PREMIUM Adapter: 1 ID: 0

Read mode : Secure
Utilize accurate stream : Yes
Defeat audio cache : Yes
Make use of C2 pointers : No

Read offset correction : 30
Overread into Lead-In and Lead-Out : Yes
Fill up missing offset samples with silence : Yes
Delete leading and trailing silent blocks : No
Null samples used in CRC calculations : No
Used interface : Installed external ASPI interface

Used output format : Internal WAV Routines
Sample format : 44.100 Hz; 16 Bit; Stereo

TOC of the extracted CD

Track | Start | Length | Start sector | End sector
---------------------------------------------------------
1 | 0:00.00 | 2:06.37 | 0 | 9486
2 | 2:06.37 | 4:33.58 | 9487 | 30019
3 | 6:40.20 | 2:31.27 | 30020 | 41371
4 | 9:11.47 | 2:03.13 | 41372 | 50609
5 | 11:14.60 | 3:00.72 | 50610 | 64181
6 | 14:15.57 | 3:00.25 | 64182 | 77706
7 | 17:16.07 | 1:54.58 | 77707 | 86314
8 | 19:10.65 | 5:51.70 | 86315 | 112709
9 | 25:02.60 | 3:56.57 | 112710 | 130466
10 | 28:59.42 | 1:42.60 | 130467 | 138176
11 | 30:42.27 | 4:29.20 | 138177 | 158371
12 | 35:11.47 | 2:06.15 | 158372 | 167836
13 | 37:17.62 | 1:36.35 | 167837 | 175071
14 | 38:54.22 | 2:16.63 | 175072 | 185334
15 | 41:11.10 | 5:57.72 | 185335 | 212181
16 | 47:09.07 | 4:41.28 | 212182 | 233284
17 | 51:50.35 | 3:22.10 | 233285 | 248444
18 | 55:12.45 | 4:20.52 | 248445 | 267996

Range status and errors

Selected range

Filename D:\My Documents\My Music\Images\my archive\CD\The Soundtrack - Desperado\The Soundtrack - Desperado.wav

Peak level 98.9 %
Range quality 100.0 %
Copy CRC E6A24AC2
Copy OK

No errors occurred

AccurateRip summary

Track 1 accurately ripped (confidence 5) [89529B61]
Track 2 accurately ripped (confidence 5) [F30CD960]
Track 3 accurately ripped (confidence 5) [37CCD63E]
Track 4 accurately ripped (confidence 5) [066581B3]
Track 5 accurately ripped (confidence 5) [239B615A]
Track 6 accurately ripped (confidence 5) [E5C95C15]
Track 7 accurately ripped (confidence 5) [4B0AD7E3]
Track 8 accurately ripped (confidence 5) [C989CBC2]
Track 9 accurately ripped (confidence 5) [CC3F0209]
Track 10 accurately ripped (confidence 5) [884DFC20]
Track 11 accurately ripped (confidence 5) [C2DA2527]
Track 12 accurately ripped (confidence 5) [45D7A84D]
Track 13 accurately ripped (confidence 5) [B22B321C]
Track 14 accurately ripped (confidence 5) [5EAEC3A7]
Track 15 accurately ripped (confidence 5) [23124766]
Track 16 accurately ripped (confidence 5) [05255DC1]
Track 17 accurately ripped (confidence 5) [B60EEB2F]
Track 18 accurately ripped (confidence 4) [4C75B200]

All tracks accurately ripped

End of status report


Трекер:  [ 07-Июл-2011 22:28 ]

  

Скачать .torrent

Размер .torrent файла 28 KB


Размер: 351 MB
Хэш (hash) релиза: 2ebf0e836ebfca6c0a538b0d67e1d4bd8310bb12

Еще никто не оставлял запись к записи скачать торрент Desperado - 1995, APE . Будь первым!

!Обратная связь