Скачать через торрент музыку VA - XXX Limited Edition OST бесплатно без регистрации torrent

Статистика раздачи
Размер:  553 MB   |    Зарегистрирован:  7 лет 4 месяца   |    .torrent скачан:  84 раза   |   
Раздают:  1  
   
загрузка...
 
Автор Сообщение

AqvaGen


Various Artists - XXX Limited Edition (2 Disc)

Жанр: Soundtrack
Год выпуска диска: 2002
Производитель диска: USA
Аудио кодек: FLAC
Тип рипа: tracks+.cue
Битрейт аудио: lossless
Продолжительность: 1:19:03.667 (209195700 samples)
Трэклист:
CD1:
01. Rammstein - Feuer Frei
02. Drowning Pool - Bodies (Vrenna XXX Mix)
03. Hatebreed - I Will Be Heard
04. Queens Of The Stone Age - Millionaire
05. Mushroomhead - Before I Die
06. Flaw - Get Up Again
07. Moby - Landing
08. Gavin Rossdale - Adrenaline
09. Fermin IV - 004
10. Orbital - Technologicque Park

CD2:
01. Nelly (Feat. Toya) - Stick Out Ya Wrist
02. Lil' Wayne - Look At Me
03. N.E.R.D. (Feat. Kelis & Pusha T) - Truth Or Dare
04. Pastor Troy (Feat. Ms Jade) - Are We Cuttin'
05. Big Tymers - Still Fly
06. Mack 10 (Feat. Ice Cube, W.C. & Butch Cassidy) - Connected For Life
07. Mr. Cheeks (Feat. Missy Elliott & P. Diddy) - Lights Camera Action! (Club Mix)
08. Postaboy (Feat. Rashad) - It's Okay
09. Dani Stevenson - Yo, Yo, Yo
10. Joi - Lick
Exact Audio Copy V0.99 prebeta 3 from 28. July 2007

EAC extraction logfile from 3. June 2008, 19:59

Various / XXX (Disc 1)

Used drive : HL-DT-STDVD+RW GCA-4040N Adapter: 1 ID: 0

Read mode : Secure
Utilize accurate stream : Yes
Defeat audio cache : Yes
Make use of C2 pointers : No

Read offset correction : 48
Overread into Lead-In and Lead-Out : No
Fill up missing offset samples with silence : Yes
Delete leading and trailing silent blocks : No
Null samples used in CRC calculations : Yes
Used interface : Native Win32 interface for Win NT & 2000
Gap handling : Appended to previous track

Used output format : User Defined Encoder
Selected bitrate : 192 kBit/s
Quality : High
Add ID3 tag : No
Command line compressor : C:\Program Files\Exact Audio Copy\Flac\flac.exe
Additional command line options : -V -8 -T "artist=%a" -T "title=%t" -T "album=%g" -T "date=%y" -T "tracknumber=%n" -T "genre=%m" %s

TOC of the extracted CD

Track | Start | Length | Start sector | End sector
---------------------------------------------------------
1 | 0:00.00 | 3:09.48 | 0 | 14222
2 | 3:09.48 | 3:21.69 | 14223 | 29366
3 | 6:31.42 | 2:58.36 | 29367 | 42752
4 | 9:30.03 | 2:36.72 | 42753 | 54524
5 | 12:07.00 | 3:13.60 | 54525 | 69059
6 | 15:20.60 | 2:55.55 | 69060 | 82239
7 | 18:16.40 | 3:43.10 | 82240 | 98974
8 | 21:59.50 | 4:15.10 | 98975 | 118109
9 | 26:14.60 | 3:56.21 | 118110 | 135830
10 | 30:11.06 | 5:43.08 | 135831 | 161563
11 | 38:26.14 | 0:08.02 | 172964 | 173565

Track 1

Filename C:\UTorrent\XXX (Disc 1) - 2002\01 - Rammstein - Feuer Frei.wav

Pre-gap length 0:00:02.00

Peak level 95.3 %
Track quality 100.0 %
Test CRC A880DB59
Copy CRC A880DB59
Accurately ripped (confidence 9) [4B16820E]
Copy OK

Track 2

Filename C:\UTorrent\XXX (Disc 1) - 2002\02 - Drowning Pool - Bodies (Vrenna XXX Mix).wav

Peak level 97.5 %
Track quality 99.9 %
Test CRC 3B31AE1B
Copy CRC 3B31AE1B
Accurately ripped (confidence 9) [135D6531]
Copy OK

Track 3

Filename C:\UTorrent\XXX (Disc 1) - 2002\03 - Hatebreed - I Will Be Heard.wav

Peak level 96.0 %
Track quality 100.0 %
Test CRC D629EC0F
Copy CRC D629EC0F
Accurately ripped (confidence 9) [621504F6]
Copy OK

Track 4

Filename C:\UTorrent\XXX (Disc 1) - 2002\04 - Queens Of The Stone Age - Millionaire.wav

Peak level 97.5 %
Track quality 100.0 %
Test CRC 364CCB1E
Copy CRC 364CCB1E
Accurately ripped (confidence 8) [8F64EF98]
Copy OK

Track 5

Filename C:\UTorrent\XXX (Disc 1) - 2002\05 - Mushroomhead - Before I Die.wav

Peak level 98.6 %
Track quality 100.0 %
Test CRC AD05D1E2
Copy CRC AD05D1E2
Accurately ripped (confidence 9) [4C6149A1]
Copy OK

Track 6

Filename C:\UTorrent\XXX (Disc 1) - 2002\06 - Flaw - Get Up Again.wav

Peak level 97.1 %
Track quality 100.0 %
Test CRC 17E0B0C1
Copy CRC 17E0B0C1
Accurately ripped (confidence 9) [E0A21C9B]
Copy OK

Track 7

Filename C:\UTorrent\XXX (Disc 1) - 2002\07 - Moby - Landing.wav

Peak level 99.8 %
Track quality 99.9 %
Test CRC 03519A7B
Copy CRC 03519A7B
Accurately ripped (confidence 9) [7FCF00B9]
Copy OK

Track 8

Filename C:\UTorrent\XXX (Disc 1) - 2002\08 - Gavin Rossdale - Adrenaline.wav

Peak level 98.6 %
Track quality 100.0 %
Test CRC 0162582B
Copy CRC 0162582B
Accurately ripped (confidence 10) [5491A989]
Copy OK

Track 9

Filename C:\UTorrent\XXX (Disc 1) - 2002\09 - Fermin IV - 004.wav

Peak level 98.6 %
Track quality 100.0 %
Test CRC 16F64B8F
Copy CRC 16F64B8F
Accurately ripped (confidence 9) [CCBDA549]
Copy OK

Track 10

Filename C:\UTorrent\XXX (Disc 1) - 2002\10 - Orbital - Technologicque Park.wav

Peak level 98.6 %
Track quality 100.0 %
Test CRC D58F71FD
Copy CRC D58F71FD
Accurately ripped (confidence 7) [A478951A]
Copy OK

All tracks accurately ripped

No errors occurred

End of status report
Exact Audio Copy V0.99 prebeta 3 from 28. July 2007

EAC extraction logfile from 3. June 2008, 21:27

Various Artists / xXx - A New Breed Of Secret Agent Cd02

Used drive : HL-DT-STDVD+RW GCA-4040N Adapter: 1 ID: 0

Read mode : Secure
Utilize accurate stream : Yes
Defeat audio cache : Yes
Make use of C2 pointers : No

Read offset correction : 48
Overread into Lead-In and Lead-Out : No
Fill up missing offset samples with silence : Yes
Delete leading and trailing silent blocks : No
Null samples used in CRC calculations : Yes
Used interface : Native Win32 interface for Win NT & 2000
Gap handling : Appended to previous track

Used output format : User Defined Encoder
Selected bitrate : 192 kBit/s
Quality : High
Add ID3 tag : No
Command line compressor : C:\Program Files\Exact Audio Copy\Flac\flac.exe
Additional command line options : -V -8 -T "artist=%a" -T "title=%t" -T "album=%g" -T "date=%y" -T "tracknumber=%n" -T "genre=%m" %s

TOC of the extracted CD

Track | Start | Length | Start sector | End sector
---------------------------------------------------------
1 | 0:00.00 | 3:50.10 | 0 | 17259
2 | 3:50.10 | 4:07.50 | 17260 | 35834
3 | 7:57.60 | 4:23.31 | 35835 | 55590
4 | 12:21.16 | 4:11.68 | 55591 | 74483
5 | 16:33.09 | 4:20.54 | 74484 | 94037
6 | 20:53.63 | 4:32.10 | 94038 | 114447
7 | 25:25.73 | 3:41.28 | 114448 | 131050
8 | 29:07.26 | 3:58.02 | 131051 | 148902
9 | 33:05.28 | 3:34.51 | 148903 | 165003
10 | 36:40.04 | 6:29.32 | 165004 | 194210

Track 1

Filename C:\UTorrent\xXx - A New Breed Of Secret Agent Cd02 - 2002\01 - Nelly (Feat. Toya) - Stick Out Ya Wrist.wav

Pre-gap length 0:00:02.00

Peak level 99.7 %
Track quality 99.9 %
Test CRC C27E8CA7
Copy CRC C27E8CA7
Accurately ripped (confidence 8) [6CA97C10]
Copy OK

Track 2

Filename C:\UTorrent\xXx - A New Breed Of Secret Agent Cd02 - 2002\02 - Lil' Wayne - Look At Me.wav

Peak level 99.8 %
Track quality 100.0 %
Test CRC EECF2808
Copy CRC EECF2808
Accurately ripped (confidence 7) [C121FD05]
Copy OK

Track 3

Filename C:\UTorrent\xXx - A New Breed Of Secret Agent Cd02 - 2002\03 - N.E.R.D. (Feat. Kelis & Pusha T) - Truth Or Dare.wav

Peak level 96.4 %
Track quality 100.0 %
Test CRC B59DA2C6
Copy CRC B59DA2C6
Accurately ripped (confidence 9) [CCF5D951]
Copy OK

Track 4

Filename C:\UTorrent\xXx - A New Breed Of Secret Agent Cd02 - 2002\04 - Pastor Troy (Feat. Ms Jade) - Are We Cuttin'.wav

Peak level 94.1 %
Track quality 100.0 %
Test CRC 93476E47
Copy CRC 93476E47
Accurately ripped (confidence 7) [6330411A]
Copy OK

Track 5

Filename C:\UTorrent\xXx - A New Breed Of Secret Agent Cd02 - 2002\05 - Big Tymers - Still Fly.wav

Peak level 98.6 %
Track quality 100.0 %
Test CRC 4F3833FD
Copy CRC 4F3833FD
Accurately ripped (confidence 9) [4329DD06]
Copy OK

Track 6

Filename C:\UTorrent\xXx - A New Breed Of Secret Agent Cd02 - 2002\06 - Mack 10 (Feat. Ice Cube, W.C. & Butch Cassidy) - Connected For Life.wav

Peak level 96.4 %
Track quality 100.0 %
Test CRC 7B3F9DD6
Copy CRC 7B3F9DD6
Accurately ripped (confidence 7) [8EF87D0A]
Copy OK

Track 7

Filename C:\UTorrent\xXx - A New Breed Of Secret Agent Cd02 - 2002\07 - Mr. Cheeks (Feat. Missy Elliott & P. Diddy) - Lights Camera Action! (Club Mix).wav

Peak level 99.8 %
Track quality 100.0 %
Test CRC 598B474C
Copy CRC 598B474C
Accurately ripped (confidence 9) [EAC0F7F4]
Copy OK

Track 8

Filename C:\UTorrent\xXx - A New Breed Of Secret Agent Cd02 - 2002\08 - Postaboy (Feat. Rashad) - It's Okay.wav

Pre-gap length 0:00:00.01

Peak level 98.6 %
Track quality 100.0 %
Test CRC B3883C3D
Copy CRC B3883C3D
Accurately ripped (confidence 7) [3341BBE4]
Copy OK

Track 9

Filename C:\UTorrent\xXx - A New Breed Of Secret Agent Cd02 - 2002\09 - Dani Stevenson - Yo, Yo, Yo.wav

Peak level 99.8 %
Track quality 100.0 %
Test CRC 4865851B
Copy CRC 4865851B
Accurately ripped (confidence 7) [E766BE00]
Copy OK

Track 10

Filename C:\UTorrent\xXx - A New Breed Of Secret Agent Cd02 - 2002\10 - Joi - Lick.wav

Peak level 97.5 %
Track quality 100.0 %
Test CRC 55B55BE8
Copy CRC 55B55BE8
Accurately ripped (confidence 6) [50F2005A]
Copy OK

All tracks accurately ripped

No errors occurred

End of status report


Трекер:  [ 20-Дек-2010 15:15 ]

  

Скачать .torrent

Размер .torrent файла 14 KB


Размер: 553 MB
Хэш (hash) релиза: d7e264fdc3962e95b22ed315716c3687bed3b8b8

bot

Топик был перенесен в форум Саундтреки к фильмам и мультфильмам (lossless)

Перенес AqvaGen

Хотите добавить комментарий к записи скачать торрент VA - XXX Limited Edition OST

!Обратная связь