Скачать через торрент музыку Криминальное чтиво Pulp Fiction - 1994, APE бесплатно без регистрации torrent

Статистика раздачи
Размер:  251 MB   |    Зарегистрирован:  7 лет 4 месяца   |    .torrent скачан:  69 раз   |   
Раздают:  1  
   
загрузка...
 
Автор Сообщение

AqvaGen


Криминальное чтиво / Pulp Fiction

Страна: США
Жанр: Soundtrack
Год выпуска: 1994
Label: Mca
Формат: APE (image + .cue)
Битрейт аудио: lossless
Продолжительность: 0:41:36

Информация о пластинке на amazon.com
[b]Трэклист
:
01. Misirlou - 2:30
02. Royale With Cheese - 1:45
03. Jungle Boogie - 3:07
04. Let's Stay Together - 3:17
05. Bustin' Surfboards - 2:29
06. Lonesome Town - 2:15
07. Son Of A Preacher Man - 2:28
08. Bullwinkle Part II - 2:31
09. You Never Can Tell - 3:14
10. Girl, You'll Be A Woman Soon - 3:10
11. If Love Is A Red Dress (Hang Me In Rags) - 4:57
12. Comanche - 2:12
13. Flowers On The Wall - 2:25
14. Personality Goes A Long Way - 1:03
15. Surf Rider - 3:20
16. Ezekiel 25:17 - 0:52

 
EAC extraction logfile from 9. August 2005, 16:04 for CDVarious / Pulp Fiction

Used drive : _NEC DVD_RW ND-1300A Adapter: 1 ID: 1Read mode : Secure with NO C2, accurate stream, disable cacheRead offset correction : 48Overread into Lead-In and Lead-Out : No

Used output format : Internal WAV Routines 44.100 Hz; 16 Bit; Stereo

Other options : Fill up missing offset samples with silence : Yes Delete leading and trailing silent blocks : No Installed external ASPI interface

Range status and errorsSelected range Filename D:\__$$__WAVE__$$__\Pulp Fiction.wav

Peak level 97.7 % Range quality 99.9 % CRC F1AB24EB Copy OK

No errors occured

End of status report
 
REM GENRE SoundtrackREM DATE 1994REM DISCID C609BF10REM COMMENT ExactAudioCopy v0.95b1PERFORMER "Various"TITLE "Pulp Fiction"FILE "Pulp Fiction.ape" WAVE TRACK 01 AUDIO TITLE "Misirlou" PERFORMER "Dick Dale & His Del-Tones" INDEX 00 00:00:00 INDEX 01 00:00:32 TRACK 02 AUDIO TITLE "Royale With Cheese" PERFORMER "Samuel L. Jackson And John Travolta" INDEX 00 02:28:67 INDEX 01 02:30:45 TRACK 03 AUDIO TITLE "Jungle Boogie" PERFORMER "Kool & The Gang" INDEX 00 04:14:05 INDEX 01 04:15:67 TRACK 04 AUDIO TITLE "Let's Stay Together" PERFORMER "Al Green" INDEX 00 07:21:48 INDEX 01 07:22:55 TRACK 05 AUDIO TITLE "Bustin' Surfboards" PERFORMER "The Tornadoes" INDEX 00 10:38:53 INDEX 01 10:39:60 TRACK 06 AUDIO TITLE "Lonesome Town" PERFORMER "Ricky Nelson" INDEX 00 13:07:16 INDEX 01 13:08:40 TRACK 07 AUDIO TITLE "Son Of A Preacher Man" PERFORMER "Dusty Springfield" INDEX 00 15:22:17 INDEX 01 15:23:50 TRACK 08 AUDIO TITLE "Bullwinkle Part II" PERFORMER "The Centurians" INDEX 00 17:50:12 INDEX 01 17:51:52 TRACK 09 AUDIO TITLE "You Never Can Tell" PERFORMER "Chuck Berry" INDEX 00 20:21:56 INDEX 01 20:22:67 TRACK 10 AUDIO TITLE "Girl, You'll Be A Woman Soon" PERFORMER "Urge Overkill" INDEX 00 23:35:43 INDEX 01 23:36:42 TRACK 11 AUDIO TITLE "If Love Is A Red Dress (Hang Me In Rags)" PERFORMER "Maria McKee" INDEX 01 26:46:70 TRACK 12 AUDIO TITLE "Comanche" PERFORMER "The Revels" INDEX 00 31:42:53 INDEX 01 31:43:67 TRACK 13 AUDIO TITLE "Flowers On The Wall" PERFORMER "The Statler Brothers" INDEX 01 33:55:72 TRACK 14 AUDIO TITLE "Personality Goes A Long Way" PERFORMER "Samuel L. Jackson And John Travolta" INDEX 00 36:19:50 INDEX 01 36:21:32 TRACK 15 AUDIO TITLE "Surf Rider" PERFORMER "The Lively Ones" INDEX 00 37:22:73 INDEX 01 37:24:00 TRACK 16 AUDIO TITLE "Ezekiel 25:17" PERFORMER "Samuel L. Jackson" INDEX 01 40:43:65
 
REM GENRE SoundtrackREM DATE 1994REM DISCID C609BF10REM COMMENT ExactAudioCopy v0.95b1PERFORMER "Various"TITLE "Pulp Fiction"FILE "Pulp Fiction.wav" WAVE TRACK 01 AUDIO TITLE "Misirlou" PERFORMER "Dick Dale & His Del-Tones" INDEX 00 00:00:00 INDEX 01 00:00:32 TRACK 02 AUDIO TITLE "Royale With Cheese" PERFORMER "Samuel L. Jackson And John Travolta" INDEX 00 02:28:67 INDEX 01 02:30:45 TRACK 03 AUDIO TITLE "Jungle Boogie" PERFORMER "Kool & The Gang" INDEX 00 04:14:05 INDEX 01 04:15:67 TRACK 04 AUDIO TITLE "Let's Stay Together" PERFORMER "Al Green" INDEX 00 07:21:48 INDEX 01 07:22:55 TRACK 05 AUDIO TITLE "Bustin' Surfboards" PERFORMER "The Tornadoes" INDEX 00 10:38:53 INDEX 01 10:39:60 TRACK 06 AUDIO TITLE "Lonesome Town" PERFORMER "Ricky Nelson" INDEX 00 13:07:16 INDEX 01 13:08:40 TRACK 07 AUDIO TITLE "Son Of A Preacher Man" PERFORMER "Dusty Springfield" INDEX 00 15:22:17 INDEX 01 15:23:50 TRACK 08 AUDIO TITLE "Bullwinkle Part II" PERFORMER "The Centurians" INDEX 00 17:50:12 INDEX 01 17:51:52 TRACK 09 AUDIO TITLE "You Never Can Tell" PERFORMER "Chuck Berry" INDEX 00 20:21:56 INDEX 01 20:22:67 TRACK 10 AUDIO TITLE "Girl, You'll Be A Woman Soon" PERFORMER "Urge Overkill" INDEX 00 23:35:43 INDEX 01 23:36:42 TRACK 11 AUDIO TITLE "If Love Is A Red Dress (Hang Me In Rags)" PERFORMER "Maria McKee" INDEX 01 26:46:70 TRACK 12 AUDIO TITLE "Comanche" PERFORMER "The Revels" INDEX 00 31:42:53 INDEX 01 31:43:67 TRACK 13 AUDIO TITLE "Flowers On The Wall" PERFORMER "The Statler Brothers" INDEX 01 33:55:72 TRACK 14 AUDIO TITLE "Personality Goes A Long Way" PERFORMER "Samuel L. Jackson And John Travolta" INDEX 00 36:19:50 INDEX 01 36:21:32 TRACK 15 AUDIO TITLE "Surf Rider" PERFORMER "The Lively Ones" INDEX 00 37:22:73 INDEX 01 37:24:00 TRACK 16 AUDIO TITLE "Ezekiel 25:17" PERFORMER "Samuel L. Jackson" INDEX 01 40:43:65



Трекер:  [ 20-Дек-2010 15:10 ]

  

Скачать .torrent

Размер .torrent файла 20 KB


Размер: 251 MB
Хэш (hash) релиза: 9c177c38ab643f659e849363ab6c22eadaaf11ac

Торренты, похожие на Криминальное чтиво Pulp Fiction - 1994, APE скачать торрент

Форум Название Автор Размер S L Добавлен
Саундтреки к фильмам и мультфильмам (lossless) ·· (Soundtrack) Криминальное чтиво / Pulp Fiction - 1994, APE (image + .cue), lossless Galfimbul 263559231251 MB 0 0 1497044910

00:48

10-Июн-17

Собственные оцифровки ·· (Soundtrack) Криминальное чтиво / Pulp Fiction (180 Gram Vinyl Remastered) - 1994, APE (image+.cue), lossless Galfimbul 783752203747 MB 0 0 1292268490

22:28

13-Дек-10

bot

Топик был перенесен в форум Саундтреки к фильмам и мультфильмам (lossless)

Перенес AqvaGen

Хотите добавить комментарий к записи скачать торрент Криминальное чтиво Pulp Fiction - 1994, APE

!Обратная связь