Скачать через торрент музыку Декстер Dexter бесплатно без регистрации torrent

Статистика раздачи
Размер:  1.11 GB   |    Зарегистрирован:  7 лет 1 месяц   |    .torrent скачан:  85 раз   |   
Раздают:  1  
   
загрузка...
 
Автор Сообщение

Galfimbul

avatar Galfimbul


Декстер / Dexter
Daniel Licht & Various Artists


Жанр: Soundtrack | Год выпуска диска: 2007 | Производитель диска: Milan Records
Аудио кодек: FLAC | Тип рипа: tracks+.cue | Битрейт аудио: lossless
Продолжительность: 01:04:05
Источник: LzTr

01. Rolfe Kent - Dexter Main Title [01:39]
02. Michael C. Hall - "Tonight's The Night" [01:07]
03. Beny More - Conoci La Paz [03:02]
04. Kinky - Uruapan Breaks [02:21]
05. Raw Artistic Soul feat. Rafael Cortez - Flores Para Ti [05:16]
06. Michael C. Hall - "Blood" [00:58]
07. Ray Armando - Con Mi Guaguanco [07:12]
08. Mambo All-Stars - Perfidia [02:36]
09. Michael C. Hall - "Sometimes I Wonder" [00:29]
10. Andy Williams - Born Free [02:25]
11. Kinky - Dexter Main Title [01:40]</div>
Original Score Selections by Daniel Licht
12. Daniel Licht - Escalation [02:08]
13. Daniel Licht - Shipyard [02:03]
14. Daniel Licht - Deborah Loves Rudy/The House [03:11]
15. Daniel Licht - I Can't Kill [02:21]
16. Daniel Licht - Voodoo Jailtime [02:57]
17. Daniel Licht - New Legs [02:01]
18. Daniel Licht - Photo Albums [03:22]
19. Daniel Licht - Courting the Night [01:21]
20. Daniel Licht - Hide Your Tears [01:35]
21. Daniel Licht - Wink [02:07]
22. Daniel Licht - Astor's Birthday Party [01:59]
23. Daniel Licht - Epilogue/Bloodroom [03:43]
24. Daniel Licht - Blood Theme [02:25]
Bonus track
25. Jon Licht/Daniel Licht - Die This Way [03:55]
 
Exact Audio Copy V0.99 prebeta 5 from 4. May 2009

EAC extraction logfile from 9. May 2009, 21:54

Various / Dexter: Music From The Showtime Original Series

Used drive : MATSHITADVD-R UJ-85J Adapter: 0 ID: 0

Read mode : SecureUtilize accurate stream : YesDefeat audio cache : YesMake use of C2 pointers : No

Read offset correction : 102Overread into Lead-In and Lead-Out : NoFill up missing offset samples with silence : YesDelete leading and trailing silent blocks : NoNull samples used in CRC calculations : YesUsed interface : Native Win32 interface for Win NT & 2000Gap handling : Appended to previous track

Used output format : User Defined EncoderSelected bitrate : 128 kBit/sQuality : HighAdd ID3 tag : NoCommand line compressor : C:\Program Files\Exact Audio Copy\Flac\flac.exeAdditional command line options : -V -8 -T "artist=%a" -T "title=%t" -T "album=%g" -T "date=%y" -T "tracknumber=%n" -T "genre=%m" %s

TOC of the extracted CD

Track | Start | Length | Start sector | End sector --------------------------------------------------------- 1 | 0:00.00 | 1:39.69 | 0 | 7493 2 | 1:39.69 | 1:07.07 | 7494 | 12525 3 | 2:47.01 | 3:02.43 | 12526 | 26218 4 | 5:49.44 | 2:21.11 | 26219 | 36804 5 | 8:10.55 | 5:16.37 | 36805 | 60541 6 | 13:27.17 | 0:58.71 | 60542 | 64962 7 | 14:26.13 | 7:12.01 | 64963 | 97363 8 | 21:38.14 | 2:36.40 | 97364 | 109103 9 | 24:14.54 | 0:29.19 | 109104 | 111297 10 | 24:43.73 | 2:25.11 | 111298 | 122183 11 | 27:09.09 | 1:40.41 | 122184 | 129724 12 | 28:49.50 | 2:08.69 | 129725 | 139393 13 | 30:58.44 | 2:03.36 | 139394 | 148654 14 | 33:02.05 | 3:11.66 | 148655 | 163045 15 | 36:13.71 | 2:21.09 | 163046 | 173629 16 | 38:35.05 | 2:57.54 | 173630 | 186958 17 | 41:32.59 | 2:01.05 | 186959 | 196038 18 | 43:33.64 | 3:22.09 | 196039 | 211197 19 | 46:55.73 | 1:21.51 | 211198 | 217323 20 | 48:17.49 | 1:35.44 | 217324 | 224492 21 | 49:53.18 | 2:07.46 | 224493 | 234063 22 | 52:00.64 | 1:59.74 | 234064 | 243062 23 | 54:00.63 | 3:43.67 | 243063 | 259854 24 | 57:44.55 | 2:25.29 | 259855 | 270758 25 | 60:10.09 | 3:55.30 | 270759 | 288413

Track 1

Filename C:\EACrips\01 - Dexter Main Title.wav

Pre-gap length 0:00:02.00

Peak level 94.4 % Track quality 99.8 % Test CRC 27DDB153 Copy CRC 27DDB153 Accurately ripped (confidence 4) [911D2159] Copy OK

Track 2

Filename C:\EACrips\02 - 'Tonight's The Night'.wav

Peak level 98.8 % Track quality 99.8 % Test CRC 6EB29A9E Copy CRC 6EB29A9E Accurately ripped (confidence 5) [2B1BEBF1] Copy OK

Track 3

Filename C:\EACrips\03 - Conoci La Paz.wav

Peak level 93.3 % Track quality 100.0 % Test CRC 919CCFEC Copy CRC 919CCFEC Accurately ripped (confidence 4) [A4FCFFD2] Copy OK

Track 4

Filename C:\EACrips\04 - Uruapan Breaks.wav

Pre-gap length 0:00:01.09

Peak level 99.9 % Track quality 100.0 % Test CRC FC5CC662 Copy CRC FC5CC662 Accurately ripped (confidence 4) [49DEA1CF] Copy OK

Track 5

Filename C:\EACrips\05 - Flores Para Ti.wav

Pre-gap length 0:00:00.88

Peak level 89.1 % Track quality 100.0 % Test CRC 3EB0CF87 Copy CRC 3EB0CF87 Accurately ripped (confidence 4) [7F93C671] Copy OK

Track 6

Filename C:\EACrips\06 - 'Blood'.wav

Peak level 98.8 % Track quality 100.0 % Test CRC 868C5A50 Copy CRC 868C5A50 Accurately ripped (confidence 4) [D901743D] Copy OK

Track 7

Filename C:\EACrips\07 - Con Mi Guaguanco.wav

Pre-gap length 0:00:00.01

Peak level 100.0 % Track quality 99.9 % Test CRC F916E063 Copy CRC F916E063 Accurately ripped (confidence 4) [B29C4B39] Copy OK

Track 8

Filename C:\EACrips\08 - Perfidia.wav

Pre-gap length 0:00:00.74

Peak level 98.8 % Track quality 100.0 % Test CRC 8D8A41AD Copy CRC 8D8A41AD Accurately ripped (confidence 4) [32ADCC27] Copy OK

Track 9

Filename C:\EACrips\09 - 'Sometimes I Wonder'.wav

Pre-gap length 0:00:00.98

Peak level 98.8 % Track quality 100.0 % Test CRC 955FCEB4 Copy CRC 955FCEB4 Accurately ripped (confidence 4) [DB56D24D] Copy OK

Track 10

Filename C:\EACrips\10 - Born Free.wav

Peak level 98.8 % Track quality 100.0 % Test CRC C6B21E1A Copy CRC C6B21E1A Accurately ripped (confidence 4) [0D76DE7D] Copy OK

Track 11

Filename C:\EACrips\11 - Dexter Main Title.wav

Pre-gap length 0:00:01.41

Peak level 98.8 % Track quality 100.0 % Test CRC 1652AFC1 Copy CRC 1652AFC1 Accurately ripped (confidence 4) [953995A8] Copy OK

Track 12

Filename C:\EACrips\12 - Escalation.wav

Pre-gap length 0:00:01.25

Peak level 88.1 % Track quality 100.0 % Test CRC 8704DA74 Copy CRC 8704DA74 Accurately ripped (confidence 5) [834F210B] Copy OK

Track 13

Filename C:\EACrips\13 - Shipyard.wav

Peak level 88.1 % Track quality 100.0 % Test CRC 8AD301FC Copy CRC 8AD301FC Accurately ripped (confidence 4) [4E0D6273] Copy OK

Track 14

Filename C:\EACrips\14 - Deborah Loves Rudy-The House.wav

Pre-gap length 0:00:00.48

Peak level 93.3 % Track quality 100.0 % Test CRC DC9DCEB8 Copy CRC DC9DCEB8 Accurately ripped (confidence 4) [8DAEFCED] Copy OK

Track 15

Filename C:\EACrips\15 - I Can't Kill.wav

Pre-gap length 0:00:01.56

Peak level 87.1 % Track quality 99.9 % Test CRC 1E06C856 Copy CRC 1E06C856 Accurately ripped (confidence 5) [7FE39153] Copy OK

Track 16

Filename C:\EACrips\16 - Voodoo Jailtime.wav

Pre-gap length 0:00:00.96

Peak level 98.8 % Track quality 100.0 % Test CRC 82BB6C8A Copy CRC 82BB6C8A Accurately ripped (confidence 4) [1FB7F919] Copy OK

Track 17

Filename C:\EACrips\17 - New Legs.wav

Pre-gap length 0:00:00.09

Peak level 93.3 % Track quality 100.0 % Test CRC 8D0CC952 Copy CRC 8D0CC952 Accurately ripped (confidence 4) [369ADC79] Copy OK

Track 18

Filename C:\EACrips\18 - Photo Albums.wav

Pre-gap length 0:00:01.25

Peak level 89.1 % Track quality 100.0 % Test CRC D9FC3C60 Copy CRC D9FC3C60 Accurately ripped (confidence 4) [074F467A] Copy OK

Track 19

Filename C:\EACrips\19 - Courting the Night.wav

Peak level 93.3 % Track quality 99.8 % Test CRC DF862589 Copy CRC DF862589 Accurately ripped (confidence 4) [1860195B] Copy OK

Track 20

Filename C:\EACrips\20 - Hide Your Tears.wav

Pre-gap length 0:00:01.09

Peak level 89.1 % Track quality 100.0 % Test CRC 1069AECF Copy CRC 1069AECF Accurately ripped (confidence 4) [F25DC359] Copy OK

Track 21

Filename C:\EACrips\21 - Wink.wav

Peak level 100.0 % Track quality 100.0 % Test CRC F5FDDBEE Copy CRC F5FDDBEE Accurately ripped (confidence 4) [29E75998] Copy OK

Track 22

Filename C:\EACrips\22 - Astor's Birthday Party.wav

Peak level 99.9 % Track quality 100.0 % Test CRC 9E198D4F Copy CRC 9E198D4F Accurately ripped (confidence 4) [3A34A262] Copy OK

Track 23

Filename C:\EACrips\23 - Epilogue-Bloodroom.wav

Peak level 93.3 % Track quality 100.0 % Test CRC 56C4C181 Copy CRC 56C4C181 Accurately ripped (confidence 4) [79F28CC6] Copy OK

Track 24

Filename C:\EACrips\24 - Blood Theme.wav

Peak level 88.1 % Track quality 100.0 % Test CRC 9F38A916 Copy CRC 9F38A916 Accurately ripped (confidence 5) [16925209] Copy OK

Track 25

Filename C:\EACrips\25 - Die This Way.wav

Pre-gap length 0:00:04.52

Peak level 98.8 % Track quality 100.0 % Test CRC 65427A50 Copy CRC 65427A50 Accurately ripped (confidence 4) [89E208ED] Copy OK

All tracks accurately ripped

No errors occurred

End of status report
 
REM GENRE SoundtrackREM DATE 2007REM DISCID 6C0F0519REM COMMENT "ExactAudioCopy v0.99pb5"PERFORMER "Various"TITLE "Dexter: Music From The Showtime Original Series"FILE "01 - Dexter Main Title.wav" WAVE TRACK 01 AUDIO TITLE "Dexter Main Title " PERFORMER "Rolfe Kent" INDEX 01 00:00:00FILE "02 - 'Tonight's The Night'.wav" WAVE TRACK 02 AUDIO TITLE "'Tonight's The Night'" PERFORMER "Michael C. Hall" INDEX 01 00:00:00FILE "03 - Conoci La Paz.wav" WAVE TRACK 03 AUDIO TITLE "Conoci La Paz" PERFORMER "Beny More" INDEX 01 00:00:00 TRACK 04 AUDIO TITLE "Uruapan Breaks" PERFORMER "Kinky" INDEX 00 03:01:36FILE "04 - Uruapan Breaks.wav" WAVE INDEX 01 00:00:00 TRACK 05 AUDIO TITLE "Flores Para Ti" PERFORMER "Raw Artistic Soul feat. Rafael Cortez" INDEX 00 02:20:20FILE "05 - Flores Para Ti.wav" WAVE INDEX 01 00:00:00FILE "06 - 'Blood'.wav" WAVE TRACK 06 AUDIO TITLE "'Blood'" PERFORMER "Michael C. Hall" INDEX 01 00:00:00 TRACK 07 AUDIO TITLE "Con Mi Guaguanco" PERFORMER "Ray Armando" INDEX 00 00:58:70FILE "07 - Con Mi Guaguanco.wav" WAVE INDEX 01 00:00:00 TRACK 08 AUDIO TITLE "Perfidia" PERFORMER "Mambo All-Stars" INDEX 00 07:11:20FILE "08 - Perfidia.wav" WAVE INDEX 01 00:00:00 TRACK 09 AUDIO TITLE "'Sometimes I Wonder'" PERFORMER "Michael C. Hall" INDEX 00 02:35:41FILE "09 - 'Sometimes I Wonder'.wav" WAVE INDEX 01 00:00:00FILE "10 - Born Free.wav" WAVE TRACK 10 AUDIO TITLE "Born Free" PERFORMER "Andy Williams" INDEX 01 00:00:00 TRACK 11 AUDIO TITLE "Dexter Main Title" PERFORMER "Kinky" INDEX 00 02:23:55FILE "11 - Dexter Main Title.wav" WAVE INDEX 01 00:00:00 TRACK 12 AUDIO TITLE "Escalation" PERFORMER "Daniel Licht" INDEX 00 01:39:22FILE "12 - Escalation.wav" WAVE INDEX 01 00:00:00FILE "13 - Shipyard.wav" WAVE TRACK 13 AUDIO TITLE "Shipyard" PERFORMER " " INDEX 01 00:00:00 TRACK 14 AUDIO TITLE "Deborah Loves Rudy\The House" PERFORMER " " INDEX 00 02:03:00FILE "14 - Deborah Loves Rudy-The House.wav" WAVE INDEX 01 00:00:00 TRACK 15 AUDIO TITLE "I Can't Kill" PERFORMER " " INDEX 00 03:10:24FILE "15 - I Can't Kill.wav" WAVE INDEX 01 00:00:00 TRACK 16 AUDIO TITLE "Voodoo Jailtime" PERFORMER " " INDEX 00 02:20:12FILE "16 - Voodoo Jailtime.wav" WAVE INDEX 01 00:00:00 TRACK 17 AUDIO TITLE "New Legs" PERFORMER " " INDEX 00 02:57:47FILE "17 - New Legs.wav" WAVE INDEX 01 00:00:00 TRACK 18 AUDIO TITLE "Photo Albums" PERFORMER " " INDEX 00 01:59:61FILE "18 - Photo Albums.wav" WAVE INDEX 01 00:00:00FILE "19 - Courting the Night.wav" WAVE TRACK 19 AUDIO TITLE "Courting the Night" PERFORMER " " INDEX 01 00:00:00 TRACK 20 AUDIO TITLE "Hide Your Tears" PERFORMER " " INDEX 00 01:20:44FILE "20 - Hide Your Tears.wav" WAVE INDEX 01 00:00:00FILE "21 - Wink.wav" WAVE TRACK 21 AUDIO TITLE "Wink" PERFORMER " " INDEX 01 00:00:00FILE "22 - Astor's Birthday Party.wav" WAVE TRACK 22 AUDIO TITLE "Astor's Birthday Party" PERFORMER " " INDEX 01 00:00:00FILE "23 - Epilogue-Bloodroom.wav" WAVE TRACK 23 AUDIO TITLE "Epilogue\Bloodroom" PERFORMER " " INDEX 01 00:00:00FILE "24 - Blood Theme.wav" WAVE TRACK 24 AUDIO TITLE "Blood Theme" PERFORMER " " INDEX 01 00:00:00 TRACK 25 AUDIO TITLE "Die This Way" PERFORMER "Jon Licht" INDEX 00 02:20:65FILE "25 - Die This Way.wav" WAVE INDEX 01 00:00:00
 
REM GENRE SoundtrackREM DATE 2007REM DISCID 6C0F0519REM COMMENT "ExactAudioCopy v0.99pb5"PERFORMER "Various"TITLE "Dexter: Music From The Showtime Original Series"FILE "01 - Dexter Main Title.wav" WAVE TRACK 01 AUDIO TITLE "Dexter Main Title " PERFORMER "Rolfe Kent" INDEX 01 00:00:00FILE "02 - 'Tonight's The Night'.wav" WAVE TRACK 02 AUDIO TITLE "'Tonight's The Night'" PERFORMER "Michael C. Hall" INDEX 01 00:00:00FILE "03 - Conoci La Paz.wav" WAVE TRACK 03 AUDIO TITLE "Conoci La Paz" PERFORMER "Beny More" INDEX 01 00:00:00 TRACK 04 AUDIO TITLE "Uruapan Breaks" PERFORMER "Kinky" INDEX 00 03:01:36FILE "04 - Uruapan Breaks.wav" WAVE INDEX 01 00:00:00 TRACK 05 AUDIO TITLE "Flores Para Ti" PERFORMER "Raw Artistic Soul feat. Rafael Cortez" INDEX 00 02:20:20FILE "05 - Flores Para Ti.wav" WAVE INDEX 01 00:00:00FILE "06 - 'Blood'.wav" WAVE TRACK 06 AUDIO TITLE "'Blood'" PERFORMER "Michael C. Hall" INDEX 01 00:00:00 TRACK 07 AUDIO TITLE "Con Mi Guaguanco" PERFORMER "Ray Armando" INDEX 00 00:58:70FILE "07 - Con Mi Guaguanco.wav" WAVE INDEX 01 00:00:00 TRACK 08 AUDIO TITLE "Perfidia" PERFORMER "Mambo All-Stars" INDEX 00 07:11:20FILE "08 - Perfidia.wav" WAVE INDEX 01 00:00:00 TRACK 09 AUDIO TITLE "'Sometimes I Wonder'" PERFORMER "Michael C. Hall" INDEX 00 02:35:41FILE "09 - 'Sometimes I Wonder'.wav" WAVE INDEX 01 00:00:00FILE "10 - Born Free.wav" WAVE TRACK 10 AUDIO TITLE "Born Free" PERFORMER "Andy Williams" INDEX 01 00:00:00 TRACK 11 AUDIO TITLE "Dexter Main Title" PERFORMER "Kinky" INDEX 00 02:23:55FILE "11 - Dexter Main Title.wav" WAVE INDEX 01 00:00:00 TRACK 12 AUDIO TITLE "Escalation" PERFORMER "Daniel Licht" INDEX 00 01:39:22FILE "12 - Escalation.wav" WAVE INDEX 01 00:00:00FILE "13 - Shipyard.wav" WAVE TRACK 13 AUDIO TITLE "Shipyard" PERFORMER "Daniel Licht" INDEX 01 00:00:00 TRACK 14 AUDIO TITLE "Deborah Loves Rudy\The House" PERFORMER "Daniel Licht" INDEX 00 02:03:00FILE "14 - Deborah Loves Rudy-The House.wav" WAVE INDEX 01 00:00:00 TRACK 15 AUDIO TITLE "I Can't Kill" PERFORMER "Daniel Licht" INDEX 00 03:10:24FILE "15 - I Can't Kill.wav" WAVE INDEX 01 00:00:00 TRACK 16 AUDIO TITLE "Voodoo Jailtime" PERFORMER "Daniel Licht" INDEX 00 02:20:12FILE "16 - Voodoo Jailtime.wav" WAVE INDEX 01 00:00:00 TRACK 17 AUDIO TITLE "New Legs" PERFORMER "Daniel Licht" INDEX 00 02:57:47FILE "17 - New Legs.wav" WAVE INDEX 01 00:00:00 TRACK 18 AUDIO TITLE "Photo Albums" PERFORMER "Daniel Licht" INDEX 00 01:59:61FILE "18 - Photo Albums.wav" WAVE INDEX 01 00:00:00FILE "19 - Courting the Night.wav" WAVE TRACK 19 AUDIO TITLE "Courting the Night" PERFORMER "Daniel Licht" INDEX 01 00:00:00 TRACK 20 AUDIO TITLE "Hide Your Tears" PERFORMER "Daniel Licht" INDEX 00 01:20:44FILE "20 - Hide Your Tears.wav" WAVE INDEX 01 00:00:00FILE "21 - Wink.wav" WAVE TRACK 21 AUDIO TITLE "Wink" PERFORMER "Daniel Licht" INDEX 01 00:00:00FILE "22 - Astor's Birthday Party.wav" WAVE TRACK 22 AUDIO TITLE "Astor's Birthday Party" PERFORMER "Daniel Licht" INDEX 01 00:00:00FILE "23 - Epilogue-Bloodroom.wav" WAVE TRACK 23 AUDIO TITLE "Epilogue\Bloodroom" PERFORMER "Daniel Licht" INDEX 01 00:00:00FILE "24 - Blood Theme.wav" WAVE TRACK 24 AUDIO TITLE "Blood Theme" PERFORMER "Daniel Licht" INDEX 01 00:00:00 TRACK 25 AUDIO TITLE "Die This Way" PERFORMER "Jon Licht/Daniel Licht" INDEX 00 02:20:65FILE "25 - Die This Way.wav" WAVE INDEX 01 00:00:00


Трекер:  [ 07-Июл-2011 22:27 ]

  

Скачать .torrent

Размер .torrent файла 21 KB


Размер: 1.11 GB
Хэш (hash) релиза: 8e730bcf622646c157ef6fc6f033516316bdbd9b

Торренты, похожие на Декстер Dexter скачать торрент

Форум Название Автор Размер S L Добавлен
Саундтреки к фильмам и мультфильмам (lossless) ·· (Score) Декстер / Правосудие Декстера / Dexter (by Daniel Licht & VA) - 2013, FLAC (tracks+.cue), lossless Polarnik 383128608365 MB 0 0 1377376234

23:30

24-Авг-13

Саундтреки к фильмам и мультфильмам (mp3) ·· (Score) Декстер / Dexter [Bootleg Score] (Daniel Licht & Rolfe Kent) - 2007, MP3 (tracks), 192 kbps AqvaGen 4350412841 MB 0 0 1292265281

21:34

13-Дек-10

Саундтреки к фильмам и мультфильмам (mp3) ·· (Soundtrack/Score) Декстер / Dexter (Daniel Licht & VA) - (OST + TV Sсore) 2007-2008, MP3 (tracks), 160-320 kbps Phoenix 194776904186 MB 0 0 1292264989

21:29

13-Дек-10

Саундтреки к фильмам и мультфильмам (lossless) ·· (Soundtrack, Score) Daniel Licht & VA - Dexter (Декстер): Seasons 1-7 (6 CD) - 2007-2013, FLAC (image+.cue), lossless Galfimbul 23948835842.23 GB 0 0 1385411765

23:36

25-Ноя-13

Саундтреки к фильмам и мультфильмам (mp3) ·· (Soundtrack / Score) Декстер: Сезоны 1-7 / Dexter: Season 1-7 (by Daniel Licht & VA) - 2007-2013, MP3, 320 kbps Galfimbul 1045814931997 MB 0 0 1377376842

23:40

24-Авг-13

Саундтреки ·· (Soundtrack / Score) Декстер: Сезоны 1-6 / Dexter: Season 1-6 (by Daniel Licht & VA) - 2007-2012, MP3, 320 kbps Galfimbul 882174855841 MB 0 0 1351331460

12:51

27-Окт-12

Саундтреки к фильмам и мультфильмам (lossless) ·· (Score / Soundtrack) Декстер: сезон 4 / Dexter: Seasons 4 (by Daniel Licht & VA) - 2010 (2009), FLAC (tracks+.cue), lossless AqvaGen 495920151473 MB 0 0 1292268575

22:29

13-Дек-10

Саундтреки к фильмам и мультфильмам (mp3) ·· (Score) Декстер: Сезоны 2 и 3 / Dexter: Seasons 2 & 3 (by Daniel Licht) - 2010, MP3 (tracks), VBR V0 ~231 kbps AqvaGen 9314057989 MB 0 0 1292265280

21:34

13-Дек-10

Саундтреки к фильмам и мультфильмам (mp3) ·· (Score / Soundtrack) Декстер: сезон 4 / Dexter: Seasons 4 (by Daniel Licht & VA) - 2010 [MP3 (tracks) 320 kbps] AqvaGen 220705225210 MB 0 0 1292265113

21:31

13-Дек-10

Еще никто не оставлял запись к записи скачать торрент Декстер Dexter . Будь первым!

!Обратная связь