Скачать через торрент музыку Mortal Kombat - 1995, FLAC бесплатно без регистрации torrent

Статистика раздачи
Размер:  492 MB   |    Зарегистрирован:  7 лет 1 месяц   |    .torrent скачан:  156 раз   |   
Раздают:  1  
   
загрузка...
 
Автор Сообщение

Galfimbul

avatar Galfimbul


Mortal Kombat

Жанр: Soundtrack
Год выпуска диска: 1995
Аудио кодек: FLAC
Тип рипа: image+.cue
Битрейт аудио: lossless
Трэклист:
1. Taste of Things to Come (George S. Clinton)
2. Goodbye [Demo Version] (Gravity Kills)
3. Juke Joint Jezebel [Metropolis Mix] (KMFDM)
4. Unlearn [Wink's Live Mix] (Psykosonik)
5. Control (feat. Traci Lords) (Juno Reactor)
6. Halcyon and On and On (Orbital)
7. Utah Saints Take on the Theme from Mortal Kombat (Utah Saints)
8. The Invisible (Geezer)
9. Zero Signal (Fear Factory)
10. Burn (Sister Machine Gun)
11. Blood & Fire [Out of the Ashes Mix] (Type O Negative)
12. I Reject (Bile)
13. Twist the Knife (Slowly) (Napalm Death)
14. What U See-We All Bleed Red (Mutha's Day Out)
15. Techno Syndrome (Mortal Kombat) [7' Mix] (Immortals, the)
16. Goro Vs. Art (George S. Clinton)
17. Demon Warriors-Final Kombat (George S. Clinton)
Доп. информация:
 
Exact Audio Copy V0.99 prebeta 4 from 23. January 2008

EAC extraction logfile from 30. November 2008, 22:10

Various / Mortal Kombat (Original Motion Picture Soundtrack)

Used drive : PLEXTOR DVDR PX-760A Adapter: 1 ID: 0

Read mode : SecureUtilize accurate stream : YesDefeat audio cache : YesMake use of C2 pointers : No

Read offset correction : 30Overread into Lead-In and Lead-Out : YesFill up missing offset samples with silence : YesDelete leading and trailing silent blocks : NoNull samples used in CRC calculations : YesUsed interface : Installed external ASPI interface

Used output format : User Defined EncoderSelected bitrate : 192 kBit/sQuality : HighAdd ID3 tag : YesCommand line compressor : C:\codecs\flac\flac.exeAdditional command line options : --best -T "artist=%a" -T "title=%t" -T "album=%g" -T "date=%y" -T "tracknumber=%n" -T "genre=%m" %s

TOC of the extracted CD

Track | Start | Length | Start sector | End sector --------------------------------------------------------- 1 | 0:00.32 | 0:48.35 | 32 | 3666 2 | 0:48.67 | 3:10.33 | 3667 | 17949 3 | 3:59.25 | 5:16.35 | 17950 | 41684 4 | 9:15.60 | 4:50.60 | 41685 | 63494 5 | 14:06.45 | 6:26.47 | 63495 | 92491 6 | 20:33.17 | 9:24.28 | 92492 | 134819 7 | 29:57.45 | 3:00.00 | 134820 | 148319 8 | 32:57.45 | 3:43.25 | 148320 | 165069 9 | 36:40.70 | 5:57.15 | 165070 | 191859 10 | 42:38.10 | 4:45.60 | 191860 | 213294 11 | 47:23.70 | 4:28.37 | 213295 | 233431 12 | 51:52.32 | 2:48.05 | 233432 | 246036 13 | 54:40.37 | 2:51.63 | 246037 | 258924 14 | 57:32.25 | 4:10.67 | 258925 | 277741 15 | 61:43.17 | 3:24.38 | 277742 | 293079 16 | 65:07.55 | 2:59.00 | 293080 | 306504 17 | 68:06.55 | 3:49.35 | 306505 | 323714

Range status and errors

Selected range

Filename G:\rip\Mortal Combat (OST)\Various - Mortal Kombat (Original Motion Picture Soundtrack).wav

Peak level 95.9 % Range quality 100.0 % Copy CRC 67595134 Copy OK

No errors occurred

AccurateRip summary

Track 1 accurately ripped (confidence 7) [62941558]Track 2 accurately ripped (confidence 8) [84B77B2F]Track 3 accurately ripped (confidence 7) [485BE5B9]Track 4 accurately ripped (confidence 8) [1CD6C8DD]Track 5 accurately ripped (confidence 8) [BA1F5D05]Track 6 accurately ripped (confidence 7) [ADC12C8E]Track 7 accurately ripped (confidence 8) [23AB673A]Track 8 accurately ripped (confidence 8) [9BB2E562]Track 9 accurately ripped (confidence 7) [9CB1C209]Track 10 accurately ripped (confidence 6) [00D37F54]Track 11 accurately ripped (confidence 7) [8DD8D88C]Track 12 accurately ripped (confidence 7) [1A064BAF]Track 13 accurately ripped (confidence 7) [414C68F2]Track 14 accurately ripped (confidence 7) [A1A2C0F0]Track 15 accurately ripped (confidence 8) [8854BFBE]Track 16 accurately ripped (confidence 7) [7D8D7CBA]Track 17 accurately ripped (confidence 7) [23DD0C57]

All tracks accurately ripped

End of status report
 
AUDIOCHECKER v2.0 beta (build 457) - by Dester - opdester@freemail.hu~~~~~~~~~~~~~~~~~~~~~~~~~~~~~~~~~~

Started at: воскресенье, 30. 11. 2008. - 22:15.261 file found

1 -===- G:\rip\Mortal Combat (OST)\Various - Mortal Kombat (Original Motion Picture Soundtrack).flac Extracted successfully Conclusion: this track is CDDA with probability 100% Tempfile successfully deleted.

Finished at: воскресенье, 30. 11. 2008. - 22:28.35 (operation time: 0:13.09)


Трекер:  [ 07-Июл-2011 22:26 ]

  

Скачать .torrent

Размер .torrent файла 20 KB


Размер: 492 MB
Хэш (hash) релиза: fb8ecf9f08feb18399d3104a0ea7ad9db48ab05b

Торренты, похожие на Mortal Kombat - 1995, FLAC скачать торрент

Форум Название Автор Размер S L Добавлен
Саундтреки к фильмам и мультфильмам (lossless) ·· (Soundtrack) Смертельная битва / Mortal Kombat [Uncensored & Censored Versions] - 1995, FLAC (image+.cue), lossless Galfimbul 1038589813990 MB 0 0 1424152061

08:47

17-Фев-15

Саундтреки к фильмам и мультфильмам (lossless) ·· (Score) Смертельная битва / Mortal Kombat (by George S. Clinton) - 1995, FLAC (image+.cue), lossless Galfimbul 200346048191 MB 0 0 1424139442

05:17

17-Фев-15

Еще никто не оставлял запись к записи скачать торрент Mortal Kombat - 1995, FLAC . Будь первым!

!Обратная связь