Скачать через торрент музыку Пес-призрак: Путь самурая Ghost Dog: The Way Of The Samurai бесплатно без регистрации torrent

Статистика раздачи
Размер:  182 MB   |    Зарегистрирован:  7 лет 1 месяц   |    .torrent скачан:  107 раз   |   
Раздают:  1  
   
загрузка...
 
Автор Сообщение

Galfimbul

avatar Galfimbul


Пес-призрак: Путь самурая / Ghost Dog: The Way Of The Samurai

Жанр: Soundtrack, Rap
Год выпуска: 2001
Формат: FLAC (tracks +.cue)
Трэклист:
1. The RZA - Ghost Dog Theme (with DOGS & EFX) (1:40)
2. The RZA - Opening Theme (Raise Your Sword Instrumental) (3:23)
3. The RZA - Flying birds (1:13)
4. The RZA - Samurai Theme (1:19)
5. The RZA - Gangsters Theme (1:06)
6. The RZA - Dead birds (0:49)
7. The RZA - Fast Shadow (version 1)(featuring WU-TANG CLAN) (1:25)
8. The RZA - RZA #7 (1:48)
9. The RZA - Funky Theme (2:31)
10. The RZA - RZA's Theme (2:31)
11. The RZA - Samurai Showdown (Raise Your Sword)(featuring the RZA) (3:58)
12. The RZA - Ghost Dog Theme (1:17)
13. The RZA - Fast Shadow (version 2)(featuring WU-TANG CLAN) (2:47)
14. The RZA - Untitled #8 (2:01)
15. The RZA - Untitled #12 (free Jazz) (2:46)
16. The RZA - Wu-World Order (version 1)(featuring WU-TANG CLAN) (3:33)
версия стоит 50 баксов. здесь вы получаете ее абсолютно бесплатно.
стянуто с стмюзег.
качаем и раааадуемся

"приколы с анализатором спектра"
трек 1


трек 8
EAC extraction logfile from 15. July 2007, 22:03 for CD
The RZA / Ghost Dog - The Way Of The Samurai

Used drive : Compaq DVD-ROM SD-M1612 Adapter: 1 ID: 0
Read mode : Secure with NO C2, accurate stream, disable cache
Read offset correction : -472
Overread into Lead-In and Lead-Out : No

Used output format : C:\Program Files\FLAC\flac.exe (User Defined Encoder)
192 kBit/s
Additional command line options : -8 -A tukey(0.25) -A gauss(0.1875) -b 4096 -V -T "artist=%a" -T "title=%t" -T "album=%g" -T "date=%y" -T "tracknumber=%n" -T "genre=%m" %s --sector-align

Other options :
Fill up missing offset samples with silence : Yes
Delete leading and trailing silent blocks : No
Installed external ASPI interface

Track 1
Filename C:\temp\upload\Ghost Dog\01 - The RZA - Ghost Dog Theme (with DOGS & EFX).wav

Pre-gap length 0:00:02.00

Peak level 97.9 %
Track quality 100.0 %
Test CRC A01454C7
Copy CRC A01454C7
Copy OK

Track 2
Filename C:\temp\upload\Ghost Dog\02 - The RZA - Opening Theme (Raise Your Sword Instrumental).wav

Pre-gap length 0:00:02.09

Peak level 97.9 %
Track quality 100.0 %
Test CRC 865047D0
Copy CRC 865047D0
Copy OK

Track 3
Filename C:\temp\upload\Ghost Dog\03 - The RZA - Flying birds.wav

Pre-gap length 0:00:01.46

Peak level 97.9 %
Track quality 99.8 %
Test CRC 5353EE4D
Copy CRC 5353EE4D
Copy OK

Track 4
Filename C:\temp\upload\Ghost Dog\04 - The RZA - Samurai Theme.wav

Peak level 97.9 %
Track quality 99.8 %
Test CRC 2009E5A1
Copy CRC 2009E5A1
Copy OK

Track 5
Filename C:\temp\upload\Ghost Dog\05 - The RZA - Gangsters Theme.wav

Pre-gap length 0:00:02.37

Peak level 97.9 %
Track quality 100.0 %
Test CRC 0B0DDFCB
Copy CRC 0B0DDFCB
Copy OK

Track 6
Filename C:\temp\upload\Ghost Dog\06 - The RZA - Dead birds.wav

Pre-gap length 0:00:02.49

Peak level 97.9 %
Track quality 100.0 %
Test CRC 2A62C688
Copy CRC 2A62C688
Copy OK

Track 7
Filename C:\temp\upload\Ghost Dog\07 - The RZA - Fast Shadow (version 1)(featuring WU-TANG CLAN).wav

Pre-gap length 0:00:01.54

Peak level 97.9 %
Track quality 100.0 %
Test CRC 2A1FBB44
Copy CRC 2A1FBB44
Copy OK

Track 8
Filename C:\temp\upload\Ghost Dog\08 - The RZA - RZA #7.wav

Peak level 97.9 %
Track quality 100.0 %
Test CRC 2E1C3AD3
Copy CRC 2E1C3AD3
Copy OK

Track 9
Filename C:\temp\upload\Ghost Dog\09 - The RZA - Funky Theme.wav

Peak level 97.9 %
Track quality 100.0 %
Test CRC DE09E9FE
Copy CRC DE09E9FE
Copy OK

Track 10
Filename C:\temp\upload\Ghost Dog\10 - The RZA - RZA's Theme.wav

Pre-gap length 0:00:00.24

Peak level 97.9 %
Track quality 100.0 %
Test CRC FAAC5257
Copy CRC FAAC5257
Copy OK

Track 11
Filename C:\temp\upload\Ghost Dog\11 - The RZA - Samurai Showdown (Raise Your Sword)(featuring the RZA).wav

Pre-gap length 0:00:01.21

Peak level 97.9 %
Track quality 100.0 %
Test CRC F6D3F9C1
Copy CRC F6D3F9C1
Copy OK

Track 12
Filename C:\temp\upload\Ghost Dog\12 - The RZA - Ghost Dog Theme.wav

Pre-gap length 0:00:02.61

Peak level 97.9 %
Track quality 100.0 %
Test CRC 179C9099
Copy CRC 179C9099
Copy OK

Track 13
Filename C:\temp\upload\Ghost Dog\13 - The RZA - Fast Shadow (version 2)(featuring WU-TANG CLAN).wav

Pre-gap length 0:00:03.26

Peak level 97.9 %
Track quality 100.0 %
Test CRC D9FAC7CF
Copy CRC D9FAC7CF
Copy OK

Track 14
Filename C:\temp\upload\Ghost Dog\14 - The RZA - Untitled #8.wav

Pre-gap length 0:00:01.25

Peak level 97.9 %
Track quality 100.0 %
Test CRC A015F0FF
Copy CRC A015F0FF
Copy OK

Track 15
Filename C:\temp\upload\Ghost Dog\15 - The RZA - Untitled #12 (free Jazz).wav

Pre-gap length 0:00:00.62

Peak level 97.9 %
Track quality 100.0 %
Test CRC 561B6569
Copy CRC 561B6569
Copy OK

Track 16
Filename C:\temp\upload\Ghost Dog\16 - The RZA - Wu-World Order (version 1)(featuring WU-TANG CLAN).wav

Pre-gap length 0:00:02.38

Peak level 97.9 %
Track quality 100.0 %
Test CRC 229E0D56
Copy CRC 229E0D56
Copy OK

No errors occured

End of status report


Трекер:  [ 07-Июл-2011 22:26 ]

  

Скачать .torrent

Размер .torrent файла 17 KB


Размер: 182 MB
Хэш (hash) релиза: b58cfdc2c2f4e32e7a163709743c34e6b079fa28

Торренты, похожие на Пес-призрак: Путь самурая Ghost Dog: The Way Of The Samurai скачать торрент

Форум Название Автор Размер S L Добавлен
Саундтреки к фильмам и мультфильмам (mp3) ·· (Soundtrack) Пес-призрак: Путь самурая / Ghost Dog: The Way Of The Samurai (The RZA) (Japanese Version) - 2001 (1999), MP3 (tracks), 320 kbps AqvaGen 8233238179 MB 0 0 1292265151

21:32

13-Дек-10

Саундтреки к фильмам и мультфильмам (mp3) ·· (Soundtrack) Пес-призрак: Путь самурая / Ghost dog: The way of Samurai - 2000, MP3, 320kbps Galfimbul 124970911119 MB 0 0 1292265302

21:35

13-Дек-10

Еще никто не оставлял запись к записи скачать торрент Пес-призрак: Путь самурая Ghost Dog: The Way Of The Samurai . Будь первым!

!Обратная связь