Скачать через торрент музыку Шаг вперед Step Up - 2006, APE бесплатно без регистрации torrent

Статистика раздачи
Размер:  432 MB   |    Зарегистрирован:  7 лет 7 месяцев   |    .torrent скачан:  65 раз   |   
Раздают:  1  
   
загрузка...
 
Автор Сообщение

Солнышко

avatar Солнышко


Шаг вперед / Step Up / Soundtrack

Жанр: Soundtrack
Год выпуска диска: 2006
Производитель диска: Jive Records
Аудио кодек: APE
Тип рипа: image+.cue
Битрейт аудио: lossless
Продолжительность: 62 минуты

Треклист:
01. "'Bout It" Yung Joc featuring 3LW 4:18
02. "Get Up" Ciara featuring Chamillionaire 4:23
03. "(When You Gonna) Give It up to Me" Sean Paul featuring Keyshia Cole 4:05
04. "Show Me the Money" Petey Pablo 3:45
05. "80's Joint" Kelis 3:13
06. "Step Up" Samantha Jade 3:26
07. "Say Goodbye" Chris Brown 4:47
08. "Dear Life" Anthony Hamilton 4:15
09. "For The Love" Drew Sidora featuring Mario 3:45
10. "Ain't Cha" The Clipse 4:43
11. "I'mma Shine" Youngbloodz 3:38
12. "Feelin' Myself" Dolla 3:45
13. "Til The Dawn" Drew Sidora 3:10
14. "Lovely" Deep Side 4:04
15. "U Must Be" Gina Rene 4:46
16. "Made" Jamie Scott 2:15

Доп. информация: Альбом занял шестую позицию в списках Billboard 200 charts (один из лучших саундтреков 2006 года).
Exact Audio Copy V0.99 prebeta 4 from 23. January 2008

Отчёт EAC об извлечении, выполненном 4. января 2009, 12:28

Various / Step Up Soundtrack

Дисковод: PLEXTOR DVDR PX-712A Adapter: 1 ID: 0

Режим чтения : Достоверность
Использование точного потока : Да
Отключение кэша аудио : Да
Использование указателей C2 : Нет

Коррекция смещения при чтении : 30
Способность читать области Lead-in и Lead-out : Нет
Заполнение пропущенных сэмплов тишиной : Да
Удаление блоков с тишиной в начале и конце : Нет
При вычислениях CRC использовались нулевые сэмплы : Нет
Интерфейс : Встроенный Win32-интерфейс для Win NT/2000

Выходной формат : Внутренние WAV-операции
Формат сэмплов : 44.100 Гц; 16 бит; стерео

TOC извлечённого CD

Трек | Старт | Длительность | Начальный сектор | Конечный сектор
---------------------------------------------------------------------
1 | 0:00.00 | 4:17.58 | 0 | 19332
2 | 4:17.58 | 4:23.28 | 19333 | 39085
3 | 8:41.11 | 4:05.31 | 39086 | 57491
4 | 12:46.42 | 3:44.51 | 57492 | 74342
5 | 16:31.18 | 3:12.68 | 74343 | 88810
6 | 19:44.11 | 3:25.46 | 88811 | 104231
7 | 23:09.57 | 4:47.10 | 104232 | 125766
8 | 27:56.67 | 4:15.02 | 125767 | 144893
9 | 32:11.69 | 3:44.41 | 144894 | 161734
10 | 35:56.35 | 4:42.48 | 161735 | 182932
11 | 40:39.08 | 3:37.72 | 182933 | 199279
12 | 44:17.05 | 3:45.17 | 199280 | 216171
13 | 48:02.22 | 3:10.16 | 216172 | 230437
14 | 51:12.38 | 4:03.50 | 230438 | 248712
15 | 55:16.13 | 4:45.69 | 248713 | 270156
16 | 60:02.07 | 2:15.10 | 270157 | 280291

Характеристики диапазона извлечения и сообщения об ошибках

Выбранный диапазон

Имя файла C:\Users\Юрий\Desktop\Various - Step Up Soundtrack.wav

Пиковый уровень 100.0 %
Качество диапазона 100.0 %
CRC копии 6B906B93
Копирование... OK

Ошибок не произошло

AccurateRip: сводка

Трек 1 точное извлечение (доверие 5) [D039FE16]
Трек 2 точное извлечение (доверие 5) [27242696]
Трек 3 точное извлечение (доверие 5) [F9D2AFD9]
Трек 4 точное извлечение (доверие 5) [D0B69AB4]
Трек 5 точное извлечение (доверие 5) [C9610645]
Трек 6 точное извлечение (доверие 5) [30D0DDEE]
Трек 7 точное извлечение (доверие 5) [42BF8231]
Трек 8 точное извлечение (доверие 5) [BDA0F600]
Трек 9 точное извлечение (доверие 5) [6E0EFAA1]
Трек 10 точное извлечение (доверие 4) [39A8DDC3]
Трек 11 точное извлечение (доверие 5) [EA8AC46B]
Трек 12 точное извлечение (доверие 5) [EE7D781D]
Трек 13 точное извлечение (доверие 5) [BA856565]
Трек 14 точное извлечение (доверие 5) [C13F8CCA]
Трек 15 точное извлечение (доверие 5) [76D32696]
Трек 16 точное извлечение (доверие 5) [C69FD7FA]

Все треки извлечены точно

Конец отчёта


Трекер:  [ 08-Янв-2011 16:54 ]

  

Скачать .torrent

Размер .torrent файла 34 KB


Размер: 432 MB
Хэш (hash) релиза: bd04c095351ce1dceacd28ef706ba2980698e809

bot

Топик был перенесен в форум Музыка (Готовые раздачи)

Перенес Солнышко

bot

Топик был перенесен из форума Музыка (Готовые раздачи) в форум Саундтреки к фильмам и мультфильмам (lossless)

Fent

Хотите добавить комментарий к записи скачать торрент Шаг вперед Step Up - 2006, APE

!Обратная связь