Скачать через торрент музыку Knockin On Heavens Door Достучаться до небес - 1997, APE бесплатно без регистрации torrent

Статистика раздачи
Размер:  513 MB   |    Зарегистрирован:  7 лет 4 месяца   |    .torrent скачан:  78 раз   |   
Раздают:  1  
   
загрузка...
 
Автор Сообщение

Galfimbul

avatar Galfimbul


Knockin' On Heaven's Door

Жанр: Soundtrack
Год выпуска диска: 1997
Аудио кодек: APE
Тип рипа: image+.cue
Битрейт аудио: lossless

Трэклист:
01. Til Schweiger / Gedanken uber Das Meer (Original Film-Dialog) [0:00:45.35]
02. Selig / Knockin' On Heaven's Door [0:04:01.62]
03. Selig / Love And Rockets [0:03:23.65]
04. Instant Karma / Silver Whale [0:03:41.53]
05. Digital Elvis & Zero / Tumors & Rumors [0:02:41.00]
06. Digital Elvis & Zero / Los Monetas [0:02:17.22]
07. Die Toten Hosen / I Am The Walrus [0:03:08.53]
08. Suborange Frequency / Mr. Bubble [0:03:54.32]
09. Digital Elvis & Zero / Heaven's Blues [0:04:32.10]
10. Digital Elvis & Zero / Gansta [0:02:24.73]
11. Digital Elvis & Zero / Cow & Boy [0:03:23.40]
12. D.I.S.C.O. / Lift You Up [0:04:48.50]
13. Digital Elvis & Zero / Who! Is It [0:02:51.27]
14. H-Blockx / How Do You Feel [0:02:14.05]
15. Such A Surge / Raw And Pure [0:04:21.58]
16. Digital Elvis & Zero / I Love My Machine [0:02:50.60]
17. Digital Elvis & Zero / Beatnik [0:03:26.47]
18. The Belle Stars / Iko Iko [0:02:58.43]
19. Digital Elvis & Zero / Strip Tears [0:01:26.30]
20. U-Stay With Melina / I'll Survive [0:03:57.15]
21. Metin Ilhan / Mabeyadi [0:04:17.30]
22. Digital Elvis & Zero / Ein schoner Tag, schade, dass es Krieg Ist [0:02:09.02]
23. Digital Elvis & Zero / Theme For Elivis (Instrumental) [0:02:55.03]
24. Selig / Venus And Weather [0:03:06.17]
25. Digital Elvis & Zero / Theme From The Ocean [0:03:25.73]
Exact Audio Copy V0.99 prebeta 4 from 23. January 2008

Отчёт EAC об извлечении, выполненном 29. сентября 2008, 2:47

Various / Knockin' On Heaven's Door - Soundtrack

Дисковод: PIONEER DVD-RW DVR-109 Adapter: 0 ID: 2

Режим чтения : Достоверность
Использование точного потока : Да
Отключение кэша аудио : Да
Использование указателей C2 : Нет

Коррекция смещения при чтении : 48
Способность читать области Lead-in и Lead-out : Нет
Заполнение пропущенных сэмплов тишиной : Да
Удаление блоков с тишиной в начале и конце : Нет
При вычислениях CRC использовались нулевые сэмплы : Да
Интерфейс : Встроенный Win32-интерфейс для Win NT/2000

Выходной формат : Внутренние WAV-операции
Формат сэмплов : 44.100 Гц; 16 бит; стерео
Смещение при сжатии : 0

TOC извлечённого CD

Трек | Старт | Длительность | Начальный сектор | Конечный сектор
---------------------------------------------------------------------
1 | 0:00.00 | 0:45.35 | 0 | 3409
2 | 0:45.35 | 4:01.62 | 3410 | 21546
3 | 4:47.22 | 3:23.65 | 21547 | 36836
4 | 8:11.12 | 3:41.53 | 36837 | 53464
5 | 11:52.65 | 2:41.00 | 53465 | 65539
6 | 14:33.65 | 2:17.22 | 65540 | 75836
7 | 16:51.12 | 3:08.53 | 75837 | 89989
8 | 19:59.65 | 3:54.32 | 89990 | 107571
9 | 23:54.22 | 4:32.10 | 107572 | 127981
10 | 28:26.32 | 2:24.73 | 127982 | 138854
11 | 30:51.30 | 3:23.40 | 138855 | 154119
12 | 34:14.70 | 4:48.50 | 154120 | 175769
13 | 39:03.45 | 2:51.27 | 175770 | 188621
14 | 41:54.72 | 2:14.05 | 188622 | 198676
15 | 44:09.02 | 4:21.58 | 198677 | 218309
16 | 48:30.60 | 2:50.60 | 218310 | 231119
17 | 51:21.45 | 3:26.47 | 231120 | 246616
18 | 54:48.17 | 2:58.43 | 246617 | 260009
19 | 57:46.60 | 1:26.30 | 260010 | 266489
20 | 59:13.15 | 3:57.15 | 266490 | 284279
21 | 63:10.30 | 4:17.30 | 284280 | 303584
22 | 67:27.60 | 2:09.02 | 303585 | 313261
23 | 69:36.62 | 2:55.03 | 313262 | 326389
24 | 72:31.65 | 3:06.17 | 326390 | 340356
25 | 75:38.07 | 3:25.73 | 340357 | 355804

Характеристики диапазона извлечения и сообщения об ошибках

Выбранный диапазон

Имя файла L:\torrent\AUDIO RIP\Knockin' On Heaven's Door\Various - Knockin' On Heaven's Door - Soundtrack.wav

Пиковый уровень 99.7 %
Качество диапазона 100.0 %
CRC копии 453EAB17
Копирование... OK

Ошибок не произошло

AccurateRip: сводка

Трек 1 точное извлечение (доверие 1) [54CF631F]
Трек 2 точное извлечение (доверие 1) [01FE1090]
Трек 3 точное извлечение (доверие 1) [21754010]
Трек 4 точное извлечение (доверие 1) [98B5736F]
Трек 5 точное извлечение (доверие 1) [5B40076B]
Трек 6 точное извлечение (доверие 1) [887A4F7F]
Трек 7 точное извлечение (доверие 1) [18C538ED]
Трек 8 точное извлечение (доверие 1) [1F26E88C]
Трек 9 точное извлечение (доверие 1) [F1B8B9D3]
Трек 10 точное извлечение (доверие 1) [FB6295E1]
Трек 11 точное извлечение (доверие 1) [6F0D9317]
Трек 12 точное извлечение (доверие 1) [EA396CDD]
Трек 13 точное извлечение (доверие 1) [D0E58FFB]
Трек 14 точное извлечение (доверие 1) [A6061A48]
Трек 15 точное извлечение (доверие 1) [94E8987A]
Трек 16 точное извлечение (доверие 1) [37113E9E]
Трек 17 точное извлечение (доверие 1) [14964A18]
Трек 18 точное извлечение (доверие 1) [927F055F]
Трек 19 точное извлечение (доверие 1) [D6E5F46A]
Трек 20 точное извлечение (доверие 1) [494B909D]
Трек 21 точное извлечение (доверие 1) [E1CE99D3]
Трек 22 точное извлечение (доверие 1) [CD1578D0]
Трек 23 точное извлечение (доверие 1) [A04CFFF7]
Трек 24 точное извлечение (доверие 1) [AB7A8F5B]
Трек 25 точное извлечение (доверие 1) [1D26E9E4]

Все треки извлечены точно

Конец отчёта


Трекер:  [ 07-Июл-2011 22:25 ]

  

Скачать .torrent

Размер .torrent файла 21 KB


Размер: 513 MB
Хэш (hash) релиза: b229e3f862a257f5f58a8cd0a9b97273cbf82523

Еще никто не оставлял запись к записи скачать торрент Knockin On Heavens Door Достучаться до небес - 1997, APE . Будь первым!

!Обратная связь