Скачать через торрент музыку Когда ты чужой When Youre Strange: A Film About The Doors бесплатно без регистрации torrent

Статистика раздачи
Размер:  406 MB   |    Зарегистрирован:  7 лет 10 месяцев   |    .torrent скачан:  43 раза   |   
Раздают:  1  
   
загрузка...
 
Автор Сообщение

AqvaGen


Когда ты чужой
When You're Strange: A Film About The Doors
The Doors and Various Artists


Жанр: Soundtrack | Год выпуска диска: 2010 | Производитель диска: Rhino Records
Аудио кодек: FLAC | Тип рипа: tracks+.cue | Битрейт аудио: lossless
Продолжительность: 01:16:17

01. Johnny Depp - Poem: Cinema 0:18
02. Johnny Depp - Poem: The Spirit Of Music 0:17
03. The Doors - Moonlight Drive 3:01
04. Johnny Depp - Poem: The Doors Of Perception 0:07
05. The Doors - Break On Through (To The Other Side) (Live At Isle Of Wright 1970) 4:47
06. Johnny Depp - Poem: A Visitation Of Energy 0:05
07. The Doors - Light My Fire (Live At The Ed Sullivan Show 1967) 2:57
08. Jim Morrison - To Really Be A Superstar (Interview) 0:13
09. The Doors - Five To One 4:25
10. Johnny Depp - Poem: Wasting The Dawn 0:06
11. The Doors - When The Music's Over (Live At Danish TV 1968) 12:26
12. The Doors - The Four Of Us Are Musicians/I'd Like Them To Listen/Rock & Roll And Jazz/Our Music Is Symbolic (Interview) 0:44
13. The Doors - Hello, I Love You 2:11
14. Jim Morrison - Dead Serious (Interview) 0:08
15. The Doors - People Are Strange 2:10
16. Johnny Depp - Poem: Inside The Dream 0:11
17. The Doors - Soul Kitchen 3:31
18. Johnny Depp - Poem: We Have Been Metamorphosized 0:16
19. Johnny Depp - Poem: Touch Scares 0:12
20. The Doors - Touch Me 2:56
21. Johnny Depp - Poem: Naked We Come 0:09
22. Johnny Depp - Poem: O Great Creator Of Being 0:12
23. The Doors - The End 11:25
24. Johnny Depp - Poem: The Girl Of The Ghetto 0:26
25. The Doors - L.A. Woman 7:47
26. Johnny Depp - Poem: Crossroads 0:10
27. The Doors - Roadhouse Blues (Live At New York 1970) 4:29
28. Johnny Depp - Poem: Ensenada 0:15
29. The Doors - Riders On The Storm 6:54
30. Johnny Depp - Poem: As I Look Back 0:11
31. The Doors - Crystal Ship 2:38
32. Johnny Depp - Poem: Goodbye America 0:24
 
Exact Audio Copy V0.99 prebeta 5 from 4. May 2009

EAC extraction logfile from 10. April 2010, 0:34

The Doors / When You're Strange (Songs From The Motion Picture)

Used drive : HL-DT-STBD-RE GGW-H20L Adapter: 5 ID: 0

Read mode : SecureUtilize accurate stream : YesDefeat audio cache : YesMake use of C2 pointers : No

Read offset correction : 667Overread into Lead-In and Lead-Out : NoFill up missing offset samples with silence : YesDelete leading and trailing silent blocks : NoNull samples used in CRC calculations : YesUsed interface : Native Win32 interface for Win NT & 2000Gap handling : Appended to previous track

Used output format : User Defined EncoderSelected bitrate : 320 kBit/sQuality : HighAdd ID3 tag : NoCommand line compressor : C:\Program Files (x86)\Exact Audio Copy\Flac\flac.exeAdditional command line options : -V -8 -T "artist=%a" -T "title=%t" -T "album=%g" -T "date=%y" -T "tracknumber=%n" -T "genre=%m" %s

TOC of the extracted CD

Track | Start | Length | Start sector | End sector --------------------------------------------------------- 1 | 0:00.00 | 0:18.26 | 0 | 1375 2 | 0:18.26 | 0:17.24 | 1376 | 2674 3 | 0:35.50 | 3:00.72 | 2675 | 16246 4 | 3:36.47 | 0:07.46 | 16247 | 16817 5 | 3:44.18 | 4:47.56 | 16818 | 38398 6 | 8:31.74 | 0:05.29 | 38399 | 38802 7 | 8:37.28 | 2:57.15 | 38803 | 52092 8 | 11:34.43 | 0:13.46 | 52093 | 53113 9 | 11:48.14 | 4:25.06 | 53114 | 72994 10 | 16:13.20 | 0:06.08 | 72995 | 73452 11 | 16:19.28 | 12:26.65 | 73453 | 129467 12 | 28:46.18 | 0:44.32 | 129468 | 132799 13 | 29:30.50 | 2:11.17 | 132800 | 142641 14 | 31:41.67 | 0:07.72 | 142642 | 143238 15 | 31:49.64 | 2:10.66 | 143239 | 153054 16 | 34:00.55 | 0:11.56 | 153055 | 153935 17 | 34:12.36 | 3:31.26 | 153936 | 169786 18 | 37:43.62 | 0:16.51 | 169787 | 171037 19 | 38:00.38 | 0:12.67 | 171038 | 172004 20 | 38:13.30 | 2:56.70 | 172005 | 185274 21 | 41:10.25 | 0:09.65 | 185275 | 186014 22 | 41:20.15 | 0:12.35 | 186015 | 186949 23 | 41:32.50 | 11:25.36 | 186950 | 238360 24 | 52:58.11 | 0:26.42 | 238361 | 240352 25 | 53:24.53 | 7:47.32 | 240353 | 275409 26 | 61:12.10 | 0:10.35 | 275410 | 276194 27 | 61:22.45 | 4:29.47 | 276195 | 296416 28 | 65:52.17 | 0:15.66 | 296417 | 297607 29 | 66:08.08 | 6:54.67 | 297608 | 328724 30 | 73:03.00 | 0:11.41 | 328725 | 329590 31 | 73:14.41 | 2:38.29 | 329591 | 341469 32 | 75:52.70 | 0:24.69 | 341470 | 343338

Track 1

Filename E:\The Doors - 2010 - When You're Strange (Songs From The Motion Picture)\01 - Cinema (Poem Read by Johnny Depp).wav

Pre-gap length 0:00:02.00

Peak level 37.2 % Track quality 100.0 % Test CRC 68F3843F Copy CRC 68F3843F Track not present in AccurateRip database Copy OK

Track 2

Filename E:\The Doors - 2010 - When You're Strange (Songs From The Motion Picture)\02 - The Spirit Of Music (Poem Read by Johnny Depp).wav

Peak level 35.9 % Track quality 100.0 % Test CRC 9B7A7080 Copy CRC 9B7A7080 Track not present in AccurateRip database Copy OK

Track 3

Filename E:\The Doors - 2010 - When You're Strange (Songs From The Motion Picture)\03 - Moonlight Drive.wav

Peak level 93.1 % Track quality 99.9 % Test CRC C0538CD5 Copy CRC C0538CD5 Track not present in AccurateRip database Copy OK

Track 4

Filename E:\The Doors - 2010 - When You're Strange (Songs From The Motion Picture)\04 - The Doors Of Perception (Poem Read by Johnny Depp).wav

Peak level 40.8 % Track quality 98.5 % Test CRC 17F8031D Copy CRC 17F8031D Track not present in AccurateRip database Copy OK

Track 5

Filename E:\The Doors - 2010 - When You're Strange (Songs From The Motion Picture)\05 - Break On Through (To The Other Side) (Live - Isle Of Wight 1970).wav

Peak level 100.0 % Track quality 100.0 % Test CRC BEEDA4E5 Copy CRC BEEDA4E5 Track not present in AccurateRip database Copy OK

Track 6

Filename E:\The Doors - 2010 - When You're Strange (Songs From The Motion Picture)\06 - A Visitation Of Energy (Poem Read by Johnny Depp).wav

Peak level 54.0 % Track quality 100.0 % Test CRC F76740DE Copy CRC F76740DE Track not present in AccurateRip database Copy OK

Track 7

Filename E:\The Doors - 2010 - When You're Strange (Songs From The Motion Picture)\07 - Light My Fire (Live - The Ed Sullivan Show 1967).wav

Peak level 98.6 % Track quality 100.0 % Test CRC F085DC82 Copy CRC F085DC82 Track not present in AccurateRip database Copy OK

Track 8

Filename E:\The Doors - 2010 - When You're Strange (Songs From The Motion Picture)\08 - To Really Be A Superstar (Jim Morrison Interview).wav

Peak level 38.6 % Track quality 99.2 % Test CRC A28B88F7 Copy CRC A28B88F7 Track not present in AccurateRip database Copy OK

Track 9

Filename E:\The Doors - 2010 - When You're Strange (Songs From The Motion Picture)\09 - Five To One.wav

Peak level 98.5 % Track quality 100.0 % Test CRC F4F86A42 Copy CRC F4F86A42 Track not present in AccurateRip database Copy OK

Track 10

Filename E:\The Doors - 2010 - When You're Strange (Songs From The Motion Picture)\10 - Wasting The Dawn (Poem Read by Johnny Depp).wav

Peak level 33.4 % Track quality 100.0 % Test CRC C62125E0 Copy CRC C62125E0 Track not present in AccurateRip database Copy OK

Track 11

Filename E:\The Doors - 2010 - When You're Strange (Songs From The Motion Picture)\11 - When The Music's Over (Live - Danish TV 1968).wav

Peak level 83.5 % Track quality 100.0 % Test CRC ECE90F70 Copy CRC ECE90F70 Track not present in AccurateRip database Copy OK

Track 12

Filename E:\The Doors - 2010 - When You're Strange (Songs From The Motion Picture)\12 - Four Interviews (Jim, Ray, John, & Robby).wav

Peak level 33.2 % Track quality 100.0 % Test CRC 1ACB3A31 Copy CRC 1ACB3A31 Track not present in AccurateRip database Copy OK

Track 13

Filename E:\The Doors - 2010 - When You're Strange (Songs From The Motion Picture)\13 - Hello, I Love You.wav

Peak level 94.3 % Track quality 100.0 % Test CRC 1988AFF3 Copy CRC 1988AFF3 Track not present in AccurateRip database Copy OK

Track 14

Filename E:\The Doors - 2010 - When You're Strange (Songs From The Motion Picture)\14 - Dead Serious (Jim Morrison Interview).wav

Peak level 35.8 % Track quality 98.6 % Test CRC 3338195B Copy CRC 3338195B Track not present in AccurateRip database Copy OK

Track 15

Filename E:\The Doors - 2010 - When You're Strange (Songs From The Motion Picture)\15 - People Are Strange.wav

Peak level 95.9 % Track quality 100.0 % Test CRC 0DBEA323 Copy CRC 0DBEA323 Track not present in AccurateRip database Copy OK

Track 16

Filename E:\The Doors - 2010 - When You're Strange (Songs From The Motion Picture)\16 - Inside The Dream (Poem Read by Johnny Depp).wav

Peak level 32.5 % Track quality 100.0 % Test CRC EB45CD8C Copy CRC EB45CD8C Track not present in AccurateRip database Copy OK

Track 17

Filename E:\The Doors - 2010 - When You're Strange (Songs From The Motion Picture)\17 - Soul Kitchen.wav

Peak level 91.8 % Track quality 100.0 % Test CRC 752C7569 Copy CRC 752C7569 Track not present in AccurateRip database Copy OK

Track 18

Filename E:\The Doors - 2010 - When You're Strange (Songs From The Motion Picture)\18 - We Have Been Metamorphosized (Poem Read by Johnny Depp).wav

Peak level 56.5 % Track quality 100.0 % Test CRC 9954FB89 Copy CRC 9954FB89 Track not present in AccurateRip database Copy OK

Track 19

Filename E:\The Doors - 2010 - When You're Strange (Songs From The Motion Picture)\19 - Touch Scares (Poem Read by Johnny Depp).wav

Peak level 75.0 % Track quality 100.0 % Test CRC FDE22835 Copy CRC FDE22835 Track not present in AccurateRip database Copy OK

Track 20

Filename E:\The Doors - 2010 - When You're Strange (Songs From The Motion Picture)\20 - Touch Me.wav

Peak level 85.6 % Track quality 100.0 % Test CRC D4CA7FA9 Copy CRC D4CA7FA9 Track not present in AccurateRip database Copy OK

Track 21

Filename E:\The Doors - 2010 - When You're Strange (Songs From The Motion Picture)\21 - Naked We Come (Poem Read by Johnny Depp).wav

Peak level 28.3 % Track quality 100.0 % Test CRC 1AE05D56 Copy CRC 1AE05D56 Track not present in AccurateRip database Copy OK

Track 22

Filename E:\The Doors - 2010 - When You're Strange (Songs From The Motion Picture)\22 - O Great Creator Of Being (Poem Read by Johnny Depp).wav

Peak level 32.8 % Track quality 100.0 % Test CRC F3DEB1EA Copy CRC F3DEB1EA Track not present in AccurateRip database Copy OK

Track 23

Filename E:\The Doors - 2010 - When You're Strange (Songs From The Motion Picture)\23 - The End.wav

Peak level 98.6 % Track quality 100.0 % Test CRC B023EBDC Copy CRC B023EBDC Track not present in AccurateRip database Copy OK

Track 24

Filename E:\The Doors - 2010 - When You're Strange (Songs From The Motion Picture)\24 - The Girl Of The Ghetto (Poem Read by Johnny Depp).wav

Peak level 26.0 % Track quality 99.5 % Test CRC FC535D7A Copy CRC FC535D7A Track not present in AccurateRip database Copy OK

Track 25

Filename E:\The Doors - 2010 - When You're Strange (Songs From The Motion Picture)\25 - L.A. Woman.wav

Peak level 87.5 % Track quality 100.0 % Test CRC C05A70C1 Copy CRC C05A70C1 Track not present in AccurateRip database Copy OK

Track 26

Filename E:\The Doors - 2010 - When You're Strange (Songs From The Motion Picture)\26 - Crossroads (Poem Read by Johnny Depp).wav

Peak level 35.1 % Track quality 100.0 % Test CRC BDA4BE26 Copy CRC BDA4BE26 Track not present in AccurateRip database Copy OK

Track 27

Filename E:\The Doors - 2010 - When You're Strange (Songs From The Motion Picture)\27 - Roadhouse Blues (Live - New York 1970).wav

Peak level 90.3 % Track quality 99.9 % Test CRC D5D92A87 Copy CRC D5D92A87 Track not present in AccurateRip database Copy OK

Track 28

Filename E:\The Doors - 2010 - When You're Strange (Songs From The Motion Picture)\28 - Ensenada (Poem Read by Johnny Depp).wav

Peak level 55.9 % Track quality 100.0 % Test CRC 05008B61 Copy CRC 05008B61 Track not present in AccurateRip database Copy OK

Track 29

Filename E:\The Doors - 2010 - When You're Strange (Songs From The Motion Picture)\29 - Riders On The Storm.wav

Peak level 100.0 % Track quality 100.0 % Test CRC 35063F45 Copy CRC 35063F45 Track not present in AccurateRip database Copy OK

Track 30

Filename E:\The Doors - 2010 - When You're Strange (Songs From The Motion Picture)\30 - As I Look Back (Poem Read by Johnny Depp).wav

Peak level 25.5 % Track quality 100.0 % Test CRC FFBC8B61 Copy CRC FFBC8B61 Track not present in AccurateRip database Copy OK

Track 31

Filename E:\The Doors - 2010 - When You're Strange (Songs From The Motion Picture)\31 - The Crystal Ship.wav

Peak level 78.9 % Track quality 99.9 % Test CRC 22A7AD3B Copy CRC 22A7AD3B Track not present in AccurateRip database Copy OK

Track 32

Filename E:\The Doors - 2010 - When You're Strange (Songs From The Motion Picture)\32 - Goodbye America (Poem Read by Johnny Depp).wav

Peak level 34.5 % Track quality 99.5 % Test CRC EE9B9F3C Copy CRC EE9B9F3C Track not present in AccurateRip database Copy OK

None of the tracks are present in the AccurateRip database

No errors occurred

End of status report
 
REM GENRE SoundtrackREM DATE 2010REM DISCID D411E120REM COMMENT "ExactAudioCopy v0.99pb5"FILE "The Doors - 2010 - When You're Strange (Songs From The Motion Picture)\01 - Cinema (Poem Read by Johnny Depp).wav" WAVE TRACK 01 AUDIO INDEX 01 00:00:00FILE "The Doors - 2010 - When You're Strange (Songs From The Motion Picture)\02 - The Spirit Of Music (Poem Read by Johnny Depp).wav" WAVE TRACK 02 AUDIO INDEX 01 00:00:00FILE "The Doors - 2010 - When You're Strange (Songs From The Motion Picture)\03 - Moonlight Drive.wav" WAVE TRACK 03 AUDIO INDEX 01 00:00:00FILE "The Doors - 2010 - When You're Strange (Songs From The Motion Picture)\04 - The Doors Of Perception (Poem Read by Johnny Depp).wav" WAVE TRACK 04 AUDIO INDEX 01 00:00:00FILE "The Doors - 2010 - When You're Strange (Songs From The Motion Picture)\05 - Break On Through (To The Other Side) (Live - Isle Of Wight 1970).wav" WAVE TRACK 05 AUDIO INDEX 01 00:00:00FILE "The Doors - 2010 - When You're Strange (Songs From The Motion Picture)\06 - A Visitation Of Energy (Poem Read by Johnny Depp).wav" WAVE TRACK 06 AUDIO INDEX 01 00:00:00FILE "The Doors - 2010 - When You're Strange (Songs From The Motion Picture)\07 - Light My Fire (Live - The Ed Sullivan Show 1967).wav" WAVE TRACK 07 AUDIO INDEX 01 00:00:00FILE "The Doors - 2010 - When You're Strange (Songs From The Motion Picture)\08 - To Really Be A Superstar (Jim Morrison Interview).wav" WAVE TRACK 08 AUDIO INDEX 01 00:00:00FILE "The Doors - 2010 - When You're Strange (Songs From The Motion Picture)\09 - Five To One.wav" WAVE TRACK 09 AUDIO INDEX 01 00:00:00FILE "The Doors - 2010 - When You're Strange (Songs From The Motion Picture)\10 - Wasting The Dawn (Poem Read by Johnny Depp).wav" WAVE TRACK 10 AUDIO INDEX 01 00:00:00FILE "The Doors - 2010 - When You're Strange (Songs From The Motion Picture)\11 - When The Music's Over (Live - Danish TV 1968).wav" WAVE TRACK 11 AUDIO INDEX 01 00:00:00FILE "The Doors - 2010 - When You're Strange (Songs From The Motion Picture)\12 - Four Interviews (Jim, Ray, John, & Robby).wav" WAVE TRACK 12 AUDIO INDEX 01 00:00:00FILE "The Doors - 2010 - When You're Strange (Songs From The Motion Picture)\13 - Hello, I Love You.wav" WAVE TRACK 13 AUDIO INDEX 01 00:00:00FILE "The Doors - 2010 - When You're Strange (Songs From The Motion Picture)\14 - Dead Serious (Jim Morrison Interview).wav" WAVE TRACK 14 AUDIO INDEX 01 00:00:00FILE "The Doors - 2010 - When You're Strange (Songs From The Motion Picture)\15 - People Are Strange.wav" WAVE TRACK 15 AUDIO INDEX 01 00:00:00FILE "The Doors - 2010 - When You're Strange (Songs From The Motion Picture)\16 - Inside The Dream (Poem Read by Johnny Depp).wav" WAVE TRACK 16 AUDIO INDEX 01 00:00:00FILE "The Doors - 2010 - When You're Strange (Songs From The Motion Picture)\17 - Soul Kitchen.wav" WAVE TRACK 17 AUDIO INDEX 01 00:00:00FILE "The Doors - 2010 - When You're Strange (Songs From The Motion Picture)\18 - We Have Been Metamorphosized (Poem Read by Johnny Depp).wav" WAVE TRACK 18 AUDIO INDEX 01 00:00:00FILE "The Doors - 2010 - When You're Strange (Songs From The Motion Picture)\19 - Touch Scares (Poem Read by Johnny Depp).wav" WAVE TRACK 19 AUDIO INDEX 01 00:00:00FILE "The Doors - 2010 - When You're Strange (Songs From The Motion Picture)\20 - Touch Me.wav" WAVE TRACK 20 AUDIO INDEX 01 00:00:00FILE "The Doors - 2010 - When You're Strange (Songs From The Motion Picture)\21 - Naked We Come (Poem Read by Johnny Depp).wav" WAVE TRACK 21 AUDIO INDEX 01 00:00:00FILE "The Doors - 2010 - When You're Strange (Songs From The Motion Picture)\22 - O Great Creator Of Being (Poem Read by Johnny Depp).wav" WAVE TRACK 22 AUDIO INDEX 01 00:00:00FILE "The Doors - 2010 - When You're Strange (Songs From The Motion Picture)\23 - The End.wav" WAVE TRACK 23 AUDIO INDEX 01 00:00:00FILE "The Doors - 2010 - When You're Strange (Songs From The Motion Picture)\24 - The Girl Of The Ghetto (Poem Read by Johnny Depp).wav" WAVE TRACK 24 AUDIO INDEX 01 00:00:00FILE "The Doors - 2010 - When You're Strange (Songs From The Motion Picture)\25 - L.A. Woman.wav" WAVE TRACK 25 AUDIO INDEX 01 00:00:00FILE "The Doors - 2010 - When You're Strange (Songs From The Motion Picture)\26 - Crossroads (Poem Read by Johnny Depp).wav" WAVE TRACK 26 AUDIO INDEX 01 00:00:00FILE "The Doors - 2010 - When You're Strange (Songs From The Motion Picture)\27 - Roadhouse Blues (Live - New York 1970).wav" WAVE TRACK 27 AUDIO INDEX 01 00:00:00FILE "The Doors - 2010 - When You're Strange (Songs From The Motion Picture)\28 - Ensenada (Poem Read by Johnny Depp).wav" WAVE TRACK 28 AUDIO INDEX 01 00:00:00FILE "The Doors - 2010 - When You're Strange (Songs From The Motion Picture)\29 - Riders On The Storm.wav" WAVE TRACK 29 AUDIO INDEX 01 00:00:00FILE "The Doors - 2010 - When You're Strange (Songs From The Motion Picture)\30 - As I Look Back (Poem Read by Johnny Depp).wav" WAVE TRACK 30 AUDIO INDEX 01 00:00:00FILE "The Doors - 2010 - When You're Strange (Songs From The Motion Picture)\31 - The Crystal Ship.wav" WAVE TRACK 31 AUDIO INDEX 01 00:00:00FILE "The Doors - 2010 - When You're Strange (Songs From The Motion Picture)\32 - Goodbye America (Poem Read by Johnny Depp).wav" WAVE TRACK 32 AUDIO INDEX 01 00:00:00
 
REM GENRE SoundtrackREM DATE 2010REM DISCID D411E120REM COMMENT "ExactAudioCopy v0.99pb5"PERFORMER "The Doors"TITLE "When You're Strange (Songs From The Motion Picture)"FILE "01 - Cinema (Poem Read by Johnny Depp).wav" WAVE TRACK 01 AUDIO TITLE "Cinema (Poem Read by Johnny Depp)" PERFORMER "Johnny Depp" INDEX 01 00:00:00FILE "02 - The Spirit Of Music (Poem Read by Johnny Depp).wav" WAVE TRACK 02 AUDIO TITLE "The Spirit Of Music (Poem Read by Johnny Depp)" PERFORMER "Johnny Depp" INDEX 01 00:00:00FILE "03 - Moonlight Drive.wav" WAVE TRACK 03 AUDIO TITLE "Moonlight Drive" PERFORMER "The Doors" INDEX 01 00:00:00FILE "04 - The Doors Of Perception (Poem Read by Johnny Depp).wav" WAVE TRACK 04 AUDIO TITLE "The Doors Of Perception (Poem Read by Johnny Depp)" PERFORMER "Johnny Depp" INDEX 01 00:00:00FILE "05 - Break On Through (To The Other Side) (Live - Isle Of Wight 1970).wav" WAVE TRACK 05 AUDIO TITLE "Break On Through (To The Other Side) (Live Isle Of Wight 1970)" PERFORMER "The Doors" INDEX 01 00:00:00FILE "06 - A Visitation Of Energy (Poem Read by Johnny Depp).wav" WAVE TRACK 06 AUDIO TITLE "A Visitation Of Energy (Poem Read by Johnny Depp)" PERFORMER "Johnny Depp" INDEX 01 00:00:00FILE "07 - Light My Fire (Live - The Ed Sullivan Show 1967).wav" WAVE TRACK 07 AUDIO TITLE "Light My Fire (Live The Ed Sullivan Show 1967)" PERFORMER "The Doors" INDEX 01 00:00:00FILE "08 - To Really Be A Superstar (Jim Morrison Interview).wav" WAVE TRACK 08 AUDIO TITLE "To Really Be A Superstar (Jim Morrison Interview)" PERFORMER "TJim Morrison" INDEX 01 00:00:00FILE "09 - Five To One.wav" WAVE TRACK 09 AUDIO TITLE "Five To One" PERFORMER "The Doors" INDEX 01 00:00:00FILE "10 - Wasting The Dawn (Poem Read by Johnny Depp).wav" WAVE TRACK 10 AUDIO TITLE "Wasting The Dawn (Poem Read by Johnny Depp)" PERFORMER "Johnny Depp" INDEX 01 00:00:00FILE "11 - When The Music's Over (Live - Danish TV 1968).wav" WAVE TRACK 11 AUDIO TITLE "When The Music's Over (Live Danish TV 1968)" PERFORMER "The Doors" INDEX 01 00:00:00FILE "12 - Four Interviews (Jim, Ray, John, & Robby).wav" WAVE TRACK 12 AUDIO TITLE "Four Interviews (Jim, Ray, John, & Robby)" PERFORMER "The Doors" INDEX 01 00:00:00FILE "13 - Hello, I Love You.wav" WAVE TRACK 13 AUDIO TITLE "Hello, I Love You" PERFORMER "The Doors" INDEX 01 00:00:00FILE "14 - Dead Serious (Jim Morrison Interview).wav" WAVE TRACK 14 AUDIO TITLE "Dead Serious (Jim Morrison Interview)" PERFORMER "Jim Morrison" INDEX 01 00:00:00FILE "15 - People Are Strange.wav" WAVE TRACK 15 AUDIO TITLE "People Are Strange" PERFORMER "The Doors" INDEX 01 00:00:00FILE "16 - Inside The Dream (Poem Read by Johnny Depp).wav" WAVE TRACK 16 AUDIO TITLE "Inside The Dream (Poem Read by Johnny Depp)" PERFORMER "Johnny Depp" INDEX 01 00:00:00FILE "17 - Soul Kitchen.wav" WAVE TRACK 17 AUDIO TITLE "Soul Kitchen" PERFORMER "The Doors" INDEX 01 00:00:00FILE "18 - We Have Been Metamorphosized (Poem Read by Johnny Depp).wav" WAVE TRACK 18 AUDIO TITLE "We Have Been Metamorphosized (Poem Read by Johnny Depp)" PERFORMER "Johnny Depp" INDEX 01 00:00:00FILE "19 - Touch Scares (Poem Read by Johnny Depp).wav" WAVE TRACK 19 AUDIO TITLE "Touch Scares (Poem Read by Johnny Depp)" PERFORMER "Johnny Depp" INDEX 01 00:00:00FILE "20 - Touch Me.wav" WAVE TRACK 20 AUDIO TITLE "Touch Me" PERFORMER "The Doors" INDEX 01 00:00:00FILE "21 - Naked We Come (Poem Read by Johnny Depp).wav" WAVE TRACK 21 AUDIO TITLE "Naked We Come (Poem Read by Johnny Depp)" PERFORMER "Johnny Depp" INDEX 01 00:00:00FILE "22 - O Great Creator Of Being (Poem Read by Johnny Depp).wav" WAVE TRACK 22 AUDIO TITLE "O Great Creator Of Being (Poem Read by Johnny Depp)" PERFORMER "Johnny Depp" INDEX 01 00:00:00FILE "23 - The End.wav" WAVE TRACK 23 AUDIO TITLE "The End" PERFORMER "The Doors" INDEX 01 00:00:00FILE "24 - The Girl Of The Ghetto (Poem Read by Johnny Depp).wav" WAVE TRACK 24 AUDIO TITLE "The Girl Of The Ghetto (Poem Read by Johnny Depp)" PERFORMER "Johnny Depp" INDEX 01 00:00:00FILE "25 - L.A. Woman.wav" WAVE TRACK 25 AUDIO TITLE "L.A. Woman" PERFORMER "The Doors" INDEX 01 00:00:00FILE "26 - Crossroads (Poem Read by Johnny Depp).wav" WAVE TRACK 26 AUDIO TITLE "Crossroads (Poem Read by Johnny Depp)" PERFORMER "Johnny Depp" INDEX 01 00:00:00FILE "27 - Roadhouse Blues (Live - New York 1970).wav" WAVE TRACK 27 AUDIO TITLE "Roadhouse Blues (Live New York 1970)" PERFORMER "The Doors" INDEX 01 00:00:00FILE "28 - Ensenada (Poem Read by Johnny Depp).wav" WAVE TRACK 28 AUDIO TITLE "Ensenada (Poem Read by Johnny Depp)" PERFORMER "Johnny Depp" INDEX 01 00:00:00FILE "29 - Riders On The Storm.wav" WAVE TRACK 29 AUDIO TITLE "Riders On The Storm" PERFORMER "The Doors" INDEX 01 00:00:00FILE "30 - As I Look Back (Poem Read by Johnny Depp).wav" WAVE TRACK 30 AUDIO TITLE "As I Look Back (Poem Read by Johnny Depp)" PERFORMER "Johnny Depp" INDEX 01 00:00:00FILE "31 - The Crystal Ship.wav" WAVE TRACK 31 AUDIO TITLE "The Crystal Ship" PERFORMER "The Doors" INDEX 01 00:00:00FILE "32 - Goodbye America (Poem Read by Johnny Depp).wav" WAVE TRACK 32 AUDIO TITLE "Goodbye America (Poem Read by Johnny Depp)" PERFORMER "Johnny Depp" INDEX 01 00:00:00



Трекер:  [ 19-Дек-2010 15:28 ]

  

Скачать .torrent

Размер .torrent файла 34 KB


Размер: 406 MB
Хэш (hash) релиза: 4dfe9cc7a300fd70f87ef2c553d4d8ac9ba3bf36

bot

Топик был перенесен в форум Саундтреки к фильмам и мультфильмам (lossless)

Перенес AqvaGen

Хотите добавить комментарий к записи скачать торрент Когда ты чужой When Youre Strange: A Film About The Doors

!Обратная связь