Скачать через торрент музыку Death Proof Доказательство смерти - 2007, WAVPack бесплатно без регистрации torrent

Статистика раздачи
Размер:  245 MB   |    Зарегистрирован:  7 лет 1 месяц   |    .torrent скачан:  48 раз   |   
Раздают:  1  
   
загрузка...
 
Автор Сообщение

Galfimbul

avatar Galfimbul


Various - Quentin Tarantino's Death Proof

Жанр: Soundtrack
Год выпуска: 2007
Формат: WAVPack (image + .cue)
Битрейт аудио: lossless
Продолжительность: 00:38:23
Трэклист:
01. The Last Race (2:40)
02. Baby It's You (3:23)
03. Paranoia Prima (3:20)
04. Planning & Scheming (1:01)
05. Jeepster (4:09)
06. Stuntman Mike (0:19)
07. Staggolee (3:51)
08. The Love You Save [May Be Your Own] (2:57)
09. Good Love, Bad Love (2:11)
10. Down In Mexico (3:23)
11. Hold Tight (2:47)
12. Sally And Jack (1:26)
13. It's So Easy (2:11)
14. Whatever-However (0:36)
15. Riot In Thunder Alley (2:04)
16. Chick Habit (2:07)
Доп. информация: Источник: HQshare.net (релизер Shibuya-Ku)
Exact Audio Copy V0.99 prebeta 1 from 25. May 2007

EAC extraction logfile from 18. July 2007, 13:07

Various / Death Proof

Used drive : PLEXTOR CD-R PREMIUM Adapter: 5 ID: 1

Read mode : Secure
Utilize accurate stream : Yes
Defeat audio cache : Yes
Make use of C2 pointers : No

Read offset correction : 30
Overread into Lead-In and Lead-Out : Yes
Fill up missing offset samples with silence : Yes
Delete leading and trailing silent blocks : No
Used interface : Installed external ASPI interface

Used output format : Internal WAV Routines
Sample format : 44.100 Hz; 16 Bit; Stereo

TOC of the extracted CD

Track | Start | Length | Start sector | End sector
---------------------------------------------------------
1 | 0:00.00 | 2:39.44 | 0 | 11968
2 | 2:39.44 | 3:22.70 | 11969 | 27188
3 | 6:02.39 | 3:19.60 | 27189 | 42173
4 | 9:22.24 | 1:00.47 | 42174 | 46720
5 | 10:22.71 | 4:09.17 | 46721 | 65412
6 | 14:32.13 | 0:18.74 | 65413 | 66836
7 | 14:51.12 | 3:50.47 | 66837 | 84133
8 | 18:41.59 | 2:56.49 | 84134 | 97382
9 | 21:38.33 | 2:11.22 | 97383 | 107229
10 | 23:49.55 | 3:22.48 | 107230 | 122427
11 | 27:12.28 | 2:47.18 | 122428 | 134970
12 | 29:59.46 | 1:25.66 | 134971 | 141411
13 | 31:25.37 | 2:10.60 | 141412 | 151221
14 | 33:36.22 | 0:36.07 | 151222 | 153928
15 | 34:12.29 | 2:04.25 | 153929 | 163253
16 | 36:16.54 | 2:07.17 | 163254 | 172795

Range status and errors

Selected range

Filename G:\~~##~~SCORES~~##~~\Various - Death Proof.wav

Peak level 99.9 %
Range quality 100.0 %
Test CRC EC14ABC2
Copy CRC EC14ABC2
Copy OK

No errors occurred

End of status report


Трекер:  [ 07-Июл-2011 22:25 ]

  

Скачать .torrent

Размер .torrent файла 20 KB


Размер: 245 MB
Хэш (hash) релиза: 7b0d194e0f6c4c67ecb84e5dcce5651ebef67f79

Еще никто не оставлял запись к записи скачать торрент Death Proof Доказательство смерти - 2007, WAVPack . Будь первым!

!Обратная связь