Скачать через торрент музыку VA - Keinohrhasen Красавчик - 2007, FLAC бесплатно без регистрации torrent

Статистика раздачи
Размер:  459 MB   |    Зарегистрирован:  7 лет 10 месяцев   |    .torrent скачан:  76 раз   |   
Раздают:  1  
   
загрузка...
 
Автор Сообщение

AqvaGen


Various Artists - Keinohrhasen / Красавчик

Жанр: Soundtrack
Год выпуска диска: 2007
Производитель диска: EU
Аудио кодек: FLAC
Тип рипа: image+.cue
Битрейт аудио: lossless
Продолжительность: 68:52

Трэклист:
01. The Killers / Mr. Brightside [0:08:46.12]
02. Deepest Blue / Deepest Blue [0:03:23.47]
03. Keinohrhasen Score / Is It Love [0:02:18.44]
04. Rea Garvey / Anna & Ludo - Hold Me Now [0:01:47.26]
05. Keinohrhasen Score / Springtimes [0:02:56.38]
06. Angels & Airwaves / Lifeline [0:04:15.37]
07. Keinohrhasen Score / Autumn Leaves [0:01:42.18]
08. Keane / Everybody's Changing [0:03:33.37]
09. Prefab Sprout / Looking For Atlantis [0:04:01.46]
10. Keinohrhasen Score / Rain [0:01:18.56]
11. Bloc Party / I Still Remember [0:04:20.60]
12. Keinohrhasen Score / Liquid [0:01:43.10]
13. Angels & Airwaves / Everything's Magic [0:03:52.21]
14. Keinohrhasen Score / Some Time [0:01:59.62]
15. Au Revoir Simone / Sad Song [0:04:07.31]
16. Timbaland feat. Onerepublic / Apologize [0:03:06.52]
17. Keinohrhasen Score / A Rainy Day In Vancouver [0:01:38.58]
18. Kashmir / Rocket Brothers [0:05:25.03]
19. Keinohrhasen Score / Perfect Circle [0:02:58.42]
20. Keinohrhasen Score / Cheyenne Blue [0:01:40.25]
21. Junge Dichter & Denker / Der Zauberlehrling [0:03:55.37]
 
Exact Audio Copy V0.99 prebeta 4 from 23. January 2008

EAC extraction logfile from 27. February 2009, 15:06

Various / Keinohrhasen

Used drive : HL-DT-STDVDRAM_GSA-T20N Adapter: 0 ID: 0

Read mode : SecureUtilize accurate stream : YesDefeat audio cache : YesMake use of C2 pointers : No

Read offset correction : 667Overread into Lead-In and Lead-Out : NoFill up missing offset samples with silence : YesDelete leading and trailing silent blocks : NoNull samples used in CRC calculations : YesUsed interface : Native Win32 interface for Win NT & 2000

Used output format : User Defined EncoderSelected bitrate : 768 kBit/sQuality : HighAdd ID3 tag : NoCommand line compressor : C:\Program Files\Exact Audio Copy\FLAC\FLAC.EXEAdditional command line options : -6 -V -T "ARTIST=%a" -T "TITLE=%t" -T "ALBUM=%g" -T "DATE=%y" -T "TRACKNUMBER=%n" -T "GENRE=%m" -T "COMMENT=%e" %s -o %d

TOC of the extracted CD

Track | Start | Length | Start sector | End sector --------------------------------------------------------- 1 | 0:00.00 | 8:46.12 | 0 | 39461 2 | 8:46.12 | 3:23.47 | 39462 | 54733 3 | 12:09.59 | 2:18.44 | 54734 | 65127 4 | 14:28.28 | 1:47.26 | 65128 | 73178 5 | 16:15.54 | 2:56.38 | 73179 | 86416 6 | 19:12.17 | 4:15.37 | 86417 | 105578 7 | 23:27.54 | 1:42.18 | 105579 | 113246 8 | 25:09.72 | 3:33.37 | 113247 | 129258 9 | 28:43.34 | 4:01.46 | 129259 | 147379 10 | 32:45.05 | 1:18.56 | 147380 | 153285 11 | 34:03.61 | 4:20.60 | 153286 | 172845 12 | 38:24.46 | 1:43.10 | 172846 | 180580 13 | 40:07.56 | 3:52.21 | 180581 | 198001 14 | 44:00.02 | 1:59.62 | 198002 | 206988 15 | 45:59.64 | 4:07.31 | 206989 | 225544 16 | 50:07.20 | 3:06.52 | 225545 | 239546 17 | 53:13.72 | 1:38.58 | 239547 | 246954 18 | 54:52.55 | 5:25.03 | 246955 | 271332 19 | 60:17.58 | 2:58.42 | 271333 | 284724 20 | 63:16.25 | 1:40.25 | 284725 | 292249 21 | 64:56.50 | 3:55.37 | 292250 | 309911

Range status and errors

Selected range

Filename D:\Various - Keinohrhasen.wav

Peak level 98.8 % Range quality 100.0 % Copy CRC 280421C2 Copy OK

No errors occurred

AccurateRip summary

Track 1 accurately ripped (confidence 20) [7E10EE2B]Track 2 accurately ripped (confidence 20) [85056754]Track 3 accurately ripped (confidence 20) [D4B2FC1C]Track 4 accurately ripped (confidence 20) [2FE8331C]Track 5 accurately ripped (confidence 21) [509D97CE]Track 6 accurately ripped (confidence 20) [A2AD02B3]Track 7 accurately ripped (confidence 20) [6FE16DF2]Track 8 accurately ripped (confidence 20) [478C7987]Track 9 accurately ripped (confidence 20) [D807D99A]Track 10 accurately ripped (confidence 20) [98616485]Track 11 accurately ripped (confidence 20) [BFC4BCB3]Track 12 accurately ripped (confidence 20) [AE56B032]Track 13 accurately ripped (confidence 20) [87A2D930]Track 14 accurately ripped (confidence 20) [43165337]Track 15 accurately ripped (confidence 20) [DADE3436]Track 16 accurately ripped (confidence 20) [E395B382]Track 17 accurately ripped (confidence 20) [8A1577D7]Track 18 accurately ripped (confidence 20) [DAE0DC4D]Track 19 accurately ripped (confidence 21) [25B3913E]Track 20 accurately ripped (confidence 21) [465C6F81]Track 21 accurately ripped (confidence 20) [D0EF3A82]

All tracks accurately ripped

End of status report


Трекер:  [ 29-Дек-2010 22:48 ]

  

Скачать .torrent

Размер .torrent файла 19 KB


Размер: 459 MB
Хэш (hash) релиза: 272172397fa290c0f6768c12afb48d4016bf357d

bot

Топик был перенесен в форум Саундтреки к фильмам и мультфильмам (lossless)

Перенес AqvaGen

Хотите добавить комментарий к записи скачать торрент VA - Keinohrhasen Красавчик - 2007, FLAC

!Обратная связь