Скачать через торрент музыку Brad Fiedel, The Terminator 2: Judgment Day - 1991, FLAC бесплатно без регистрации torrent

Статистика раздачи
Размер:  223 MB   |    Зарегистрирован:  7 лет 1 месяц   |    .torrent скачан:  60 раз   |   
Раздают:  1  
   
загрузка...
 
Автор Сообщение

Galfimbul

avatar Galfimbul


Brad Fiedel, The Terminator 2: Judgment Day



Жанр: Score
Год выпуска диска: 1991
Производитель диска: USA
Лейбл: Varese Sarabande Records
Аудио кодек: FLAC
Тип рипа: image+.cue
Битрейт аудио: lossless
Продолжительность: 53:43

Трэклист:

01. Main Title (Terminator 2 Theme) (1:59)
02. Sarah On The Run (2:35)
03. Escape From The Hospital (And T1000) (4:35)
04. Desert Suite (3:29)
05. Sarah's Dream (Nuclear Nightmare) (1:52)
06. Attack On Dyson (Sarah's Solution) (4:09)
07. Our Gang Goes To Cyberdyne (3:11)
08. 'Trust Me' (1:39)
09. John And Dyson Into Vault (0:44)
10. Swat Team Attacks (3:25)
11. 'I'll Be Back' (4:01)
12. Helicopter Chase (2:28)
13. Tanker Chase (1:44)
14. 'Hasta La Vista, Baby' (T1000 Freezes) (3:04)
15. Into The Steel Mill (1:27)
16. Cameron's Inferno (2:39)
17. Terminator Impaled (2:06)
18. Terminator Revives (2:16)
19. T1000 Terminated (1:44)
20. 'It's Over' ('Good-Bye') (4:37)

Дополнительная информация: + коврики (72 dpi)
 
Exact Audio Copy V0.99 prebeta 4 from 23. January 2008

EAC extraction logfile from 6. September 2008, 20:22

Brad Fiedel / Terminator 2: Judgment Day

Used drive : PLEXTOR CD-R PX-W5224A Adapter: 1 ID: 1

Read mode : SecureUtilize accurate stream : YesDefeat audio cache : YesMake use of C2 pointers : No

Read offset correction : 30Overread into Lead-In and Lead-Out : NoFill up missing offset samples with silence : YesDelete leading and trailing silent blocks : NoNull samples used in CRC calculations : YesUsed interface : Installed external ASPI interface

Used output format : Internal WAV RoutinesSample format : 44.100 Hz; 16 Bit; Stereo

TOC of the extracted CD

Track | Start | Length | Start sector | End sector --------------------------------------------------------- 1 | 0:00.00 | 1:59.37 | 0 | 8961 2 | 1:59.37 | 2:34.65 | 8962 | 20576 3 | 4:34.27 | 4:35.03 | 20577 | 41204 4 | 9:09.30 | 3:28.47 | 41205 | 56851 5 | 12:38.02 | 1:51.48 | 56852 | 65224 6 | 14:29.50 | 4:08.72 | 65225 | 83896 7 | 18:38.47 | 3:11.13 | 83897 | 98234 8 | 21:49.60 | 1:39.37 | 98235 | 105696 9 | 23:29.22 | 0:44.05 | 105697 | 109001 10 | 24:13.27 | 3:25.00 | 109002 | 124376 11 | 27:38.27 | 4:00.53 | 124377 | 142429 12 | 31:39.05 | 2:27.62 | 142430 | 153516 13 | 34:06.67 | 1:43.68 | 153517 | 161309 14 | 35:50.60 | 3:03.42 | 161310 | 175076 15 | 38:54.27 | 1:27.18 | 175077 | 181619 16 | 40:21.45 | 2:39.25 | 181620 | 193569 17 | 43:00.70 | 2:06.12 | 193570 | 203031 18 | 45:07.07 | 2:15.55 | 203032 | 213211 19 | 47:22.62 | 1:43.58 | 213212 | 220994 20 | 49:06.45 | 4:36.65 | 220995 | 241759

Range status and errors

Selected range

Filename E:\cdimage.wav

Peak level 87.9 % Range quality 100.0 % Copy CRC 68A49681 Copy OK

No errors occurred

End of status report

------------------------------------------------------------------------------------------------

Brad Fiedel\Brad Fiedel - [1991] - Terminator 2 - Judgment Day O.S.T\cdimage.cue:

Checking AccurateRip database

Track Ripping Status [Disc ID: 0027ae68-f20c9714]

1 Accurately Ripped (confidence 3) [3350371b] 2 Accurately Ripped (confidence 5) [fbf04feb] 3 Accurately Ripped (confidence 5) [f9ed2991] 4 Accurately Ripped (confidence 5) [c9c21a8d] 5 Accurately Ripped (confidence 5) [b61a7e82] 6 Accurately Ripped (confidence 5) [b4f6c538] 7 Accurately Ripped (confidence 5) [5b9b163f] 8 Accurately Ripped (confidence 5) [81715326] 9 Accurately Ripped (confidence 5) [064b3a10] 10 Accurately Ripped (confidence 5) [e1698afd] 11 Accurately Ripped (confidence 5) [4671c575] 12 Accurately Ripped (confidence 5) [8832c054] 13 Accurately Ripped (confidence 5) [5cd6d85f] 14 Accurately Ripped (confidence 5) [8cd3c5cd] 15 Accurately Ripped (confidence 5) [e83ba6b9] 16 Accurately Ripped (confidence 5) [5aff35a3] 17 Accurately Ripped (confidence 5) [6c119b58] 18 Accurately Ripped (confidence 5) [8f08f1c6] 19 Accurately Ripped (confidence 5) [202374bf] 20 Accurately Ripped (confidence 3) [bef0180b]

_______________________

All Tracks Accurately Ripped.

------------------------------------------------------------------------------------------------

auCDtect: CD records authenticity detector, version 0.8.2Copyright (c) 2004 Oleg Berngardt. All rights reserved.Copyright (c) 2004 Alexander Djourik. All rights reserved.------------------------------------------------------------Processing file: [cdimage.wav]Detected average hi-boundary frequency: 2.028914e+004 HzDetected average lo-boundary frequency: 1.336036e+004 HzDetected average hi-cut frequency: 2.140322e+004 HzDetected average lo-cut frequency: 1.473917e+004 HzMaximum probablis boundary frequency: 2.142300e+004 HzCoefficient of nonlinearity of a phase: 1.738280e-001First order smothness: 3.760706e-001Second order smothness: 6.889707e-001

------------------------------------------------------------This track looks like CDDA with probability 100%


Трекер:  [ 07-Июл-2011 22:25 ]

  

Скачать .torrent

Размер .torrent файла 18 KB


Размер: 223 MB
Хэш (hash) релиза: 18d4c581ff5e4e3f3daa6b9f96f54d6504669d35

Еще никто не оставлял запись к записи скачать торрент Brad Fiedel, The Terminator 2: Judgment Day - 1991, FLAC . Будь первым!

!Обратная связь